<?xml version="1.0" standalone="no"?>
<!DOCTYPE svg PUBLIC "-//W3C//DTD SVG 1.1//EN" "http://www.w3.org/Graphics/SVG/1.1/DTD/svg11.dtd" >
<svg>
<metadata>
Created by FontForge 20110222 at Wed Jun 18 06:17:56 2014
 By Orthosie Webhosting
Copyright (c) 1991, 1998 Adobe Systems Incorporated.  All Rights Reserved.Berthold Akzidenz-Grotesk is either a registered trademark or trademark of Berthold Types Limited in the United States and/or other countries.
</metadata>
<defs>
<font id="BertholdAkzidenzGroteskCondensed" horiz-adv-x="375" >
  <font-face 
    font-family="BertholdAkzidenzGroteskCondensed"
    font-weight="400"
    font-stretch="condensed"
    units-per-em="1000"
    panose-1="2 11 5 6 0 0 0 0 0 0"
    ascent="750"
    descent="-250"
    x-height="500"
    cap-height="706"
    bbox="-134 -250 875 901"
    underline-thickness="50"
    underline-position="-50"
    unicode-range="U+0020-FB02"
  />
<missing-glyph horiz-adv-x="229" 
 />
    <glyph glyph-name=".notdef" horiz-adv-x="229" 
 />
    <glyph glyph-name=".null" horiz-adv-x="0" 
 />
    <glyph glyph-name="nonmarkingreturn" horiz-adv-x="333" 
 />
    <glyph glyph-name="space" unicode=" " horiz-adv-x="229" 
 />
    <glyph glyph-name="space" unicode="&#xa0;" horiz-adv-x="229" 
 />
    <glyph glyph-name="exclam" unicode="!" horiz-adv-x="208" 
d="M167 118v-118h-85v118h85zM167 484l-21 -292h-45l-19 292v223h85v-223z" />
    <glyph glyph-name="quotedbl" unicode="&#x22;" horiz-adv-x="396" 
d="M343 690l-41 -256h-23l-38 244q-2 12 -2 17q0 28 17.5 41t37.5 13q23 0 38 -15.5t11 -43.5zM156 690l-41 -256h-23l-38 244q-2 12 -2 17q0 28 17.5 41t37.5 13q23 0 38 -15.5t11 -43.5z" />
    <glyph glyph-name="numbersign" unicode="#" horiz-adv-x="583" 
d="M559 307v-77h-150l-33 -230h-80l33 230h-111l-32 -230h-81l33 230h-138v77h149l16 107h-141v77h151l31 215h80l-30 -215h110l31 215h78l-29 -215h138v-77h-149l-16 -107h140zM229 307h111l15 107h-111z" />
    <glyph glyph-name="dollar" unicode="$" horiz-adv-x="396" 
d="M229 -9v-85h-57v85q-90 10 -126 78q-12 23 -14.5 53t-2.5 122h82q0 -96 2 -110q4 -24 16 -39.5t20.5 -19t22.5 -8.5v261l-42 44q-47 49 -65 84t-18 94q0 84 32 119.5t93 45.5v84h57v-84q74 -8 100.5 -46.5t26.5 -117.5v-54h-80q0 75 -7.5 102t-39.5 37v-238l47 -51
q55 -60 74.5 -98.5t19.5 -91.5q0 -145 -141 -166zM229 265v-198q56 19 56 91q0 51 -56 107zM172 457v179q-42 -20 -42 -80q0 -24 6.5 -44t14 -30t21.5 -25z" />
    <glyph glyph-name="percent" unicode="%" horiz-adv-x="625" 
d="M509 707l-344 -707h-49l347 707h46zM229 486q0 -109 -3 -139q-9 -87 -99 -87q-33 0 -55 9.5t-31.5 27t-12 27t-4.5 24.5q-2 21 -2 229q0 20 0.5 32.5t6 34.5t15.5 34.5t31 23t50 10.5q87 0 101 -85q3 -19 3 -141zM161 484v88q0 25 -0.5 35.5t-4 22.5t-11 16t-20.5 4
q-16 0 -24.5 -9t-10 -18.5t-1.5 -25.5q-1 -35 -1 -158q0 -81 5 -99.5t31 -18.5q15 0 23.5 6t9.5 11.5t2 15.5q2 21 2 130zM604 222q0 -110 -3 -140q-9 -87 -99 -87q-33 0 -55 9.5t-31.5 27t-12 27t-4.5 24.5q-2 21 -2 229q0 20 0.5 32.5t6 34.5t15.5 34.5t31 23t50 10.5
q87 0 101 -85q3 -19 3 -140zM536 219v88q0 25 -0.5 35.5t-4 22.5t-11 16t-20.5 4q-16 0 -24.5 -9t-10 -18.5t-1.5 -25.5q-1 -35 -1 -158q0 -80 5 -99t31 -19q15 0 23.5 6t9.5 11.5t2 15.5q2 21 2 130z" />
    <glyph glyph-name="ampersand" unicode="&#x26;" horiz-adv-x="458" 
d="M338 307l77 -1q3 -110 -52 -201q9 -11 14.5 -17t21.5 -12t38 -5v-75q-79 -5 -123 47q-56 -53 -133 -53q-71 0 -115.5 45t-44.5 119q0 88 61 157l44 44q-46 102 -46 148q0 44 30 81.5t91 37.5q52 0 87.5 -30.5t35.5 -84.5q0 -79 -100 -170q22 -44 90 -158q23 42 24 128z
M265 103q-31 41 -102 177q-56 -43 -57 -134q-1 -41 23 -63t55 -22q44 0 81 42zM191 408q26 27 35.5 39t17 27.5t7.5 32.5q0 24 -14 36.5t-33 12.5q-46 0 -46 -53q0 -38 33 -95z" />
    <glyph glyph-name="quotesingle" unicode="'" horiz-adv-x="208" 
d="M156 690l-41 -256h-23l-38 244q-2 12 -2 17q0 28 17.5 41t37.5 13q23 0 38 -15.5t11 -43.5z" />
    <glyph glyph-name="parenleft" unicode="(" horiz-adv-x="292" 
d="M235 718l43 -38q-60 -90 -90 -176t-30 -227q0 -249 125 -411l-41 -37q-16 18 -39.5 53.5t-56.5 95.5t-55 140.5t-22 159.5q0 225 166 440z" />
    <glyph glyph-name="parenright" unicode=")" horiz-adv-x="292" 
d="M49 -171l-41 37q125 162 125 411q0 141 -30 227t-90 176l43 38q166 -215 166 -440q0 -79 -22 -159.5t-55 -140.5t-56.5 -95.5t-39.5 -53.5z" />
    <glyph glyph-name="asterisk" unicode="*" horiz-adv-x="354" 
d="M248 391l-68 95l-71 -95l-53 40l71 95l-115 36l21 66l113 -39v117h66v-117l112 34l19 -61l-110 -36l69 -95z" />
    <glyph glyph-name="plus" unicode="+" horiz-adv-x="500" 
d="M468 331v-80h-179v-179h-80v179h-178v80h178v179h80v-179h179z" />
    <glyph glyph-name="comma" unicode="," horiz-adv-x="167" 
d="M40 118h86v-113q0 -22 -1 -36t-5.5 -33.5t-13 -32t-25.5 -24t-41 -16.5v52q26 8 32.5 27t5.5 58h-38v118z" />
    <glyph glyph-name="hyphen" unicode="-" horiz-adv-x="271" 
d="M250 309v-78h-230v78h230z" />
    <glyph glyph-name="hyphen" unicode="&#xad;" horiz-adv-x="271" 
d="M250 309v-78h-230v78h230z" />
    <glyph glyph-name="period" unicode="." horiz-adv-x="167" 
d="M126 118v-118h-85v118h85z" />
    <glyph glyph-name="slash" unicode="/" horiz-adv-x="292" 
d="M287 706l-198 -706h-84l201 706h81z" />
    <glyph glyph-name="zero" unicode="0" 
d="M347 354q0 -173 -5 -228q-2 -16 -4 -27t-12 -33.5t-24.5 -37t-43.5 -26t-68 -11.5q-125 0 -150 93q-12 44 -12 271q0 157 2.5 200.5t12.5 71.5q10 29 30 48t43.5 27t39.5 10.5t31 2.5q108 0 143 -86q12 -29 14.5 -69.5t2.5 -205.5zM258 350v118q0 37 -0.5 53.5t-2.5 41
t-6 34t-11.5 21t-20 15t-29.5 3.5q-24 0 -40 -9t-22 -26.5t-7.5 -30t-2.5 -33.5q-1 -54 -1 -222q0 -116 1 -146q0 -24 2 -37t8 -30t21 -25t39 -8t39 7.5t21.5 24.5t8.5 31t2 41q1 20 1 177z" />
    <glyph glyph-name="one" unicode="1" 
d="M243 706v-706h-89v554h-117v67q24 0 37 0.5t33.5 5t31.5 13t20 25.5t9 41h75z" />
    <glyph glyph-name="two" unicode="2" 
d="M343 76v-76h-309v84l146 247q46 79 58.5 115t12.5 92q0 96 -65 96q-22 0 -36 -9t-19.5 -27t-6.5 -30t-1 -33v-81h-81v88q0 94 36 132q39 41 106 41q66 0 105 -41q45 -48 45 -143q0 -62 -16.5 -109.5t-49.5 -102.5l-145 -243h220z" />
    <glyph glyph-name="three" unicode="3" 
d="M123 506h-80q-2 111 20 150q33 59 124 59q78 0 114 -51q31 -40 31 -134q0 -76 -15.5 -110t-66.5 -44q59 -14 76 -52t17 -155q0 -90 -44 -135q-43 -43 -114 -43q-58 0 -101 27q-28 18 -41.5 53.5t-12 70t0.5 69.5h80q-1 -27 0 -66q3 -77 69 -77q33 0 50.5 17.5t20.5 34.5
t3 42q1 13 1 71q0 56 -22.5 78t-68.5 22q-19 0 -27 -1v79q23 -3 43 0t35 11t24 31t9 59q0 71 -11.5 98.5t-52.5 27.5t-52.5 -33.5t-8.5 -98.5z" />
    <glyph glyph-name="four" unicode="4" 
d="M287 158v-158h-83v158h-183v97l143 452h123v-474h62v-75h-62zM87 233h117l4 394z" />
    <glyph glyph-name="five" unicode="5" 
d="M60 706h274v-77h-194l-6 -175q31 31 86 31q66 0 99 -52q22 -36 22 -138q0 -140 -3 -170q-7 -61 -48 -97.5t-110 -36.5q-152 0 -152 176q0 8 0.5 21t0.5 19h83q-2 -29 0 -53.5t7 -43.5t21 -29.5t43 -10.5q28 0 44.5 14t20 26t4.5 24q3 29 3 156q0 28 -1.5 42.5t-7 35
t-20 30t-38.5 9.5q-17 0 -29 -6.5t-17.5 -13.5t-9 -21t-4 -20.5t-0.5 -21.5h-79z" />
    <glyph glyph-name="six" unicode="6" 
d="M34 226v255q0 97 6 124q21 110 144 110q80 0 119 -47q20 -24 25 -51.5t5 -78.5h-82q0 28 -1 41t-7 29t-19.5 22.5t-37.5 6.5q-54 0 -66 -49q-5 -21 -5 -124v-53q42 50 99 50q56 0 91 -38q23 -24 30 -59.5t7 -122.5q0 -149 -22 -187q-38 -63 -137 -63q-125 0 -144 110
q-5 30 -5 125zM256 223q0 70 -2 98q-4 67 -69 67q-17 0 -29 -4t-19.5 -16t-12 -22t-6 -33.5t-2 -39.5t-0.5 -51q0 -76 3 -98q2 -10 4 -15t9 -17t21 -18t35 -6q17 0 28.5 3.5t19 14.5t12 20.5t6 31.5t2 37t0.5 48z" />
    <glyph glyph-name="seven" unicode="7" 
d="M340 706v-65q0 -4 -4.5 -11.5t-5.5 -9.5q-17 -36 -37 -87q-36 -97 -56.5 -202.5t-24.5 -168.5t-7 -162h-96q10 256 82 464q7 19 62 163h-220v79h307z" />
    <glyph glyph-name="eight" unicode="8" 
d="M338 550q0 -84 -10.5 -120.5t-46.5 -49.5q-4 -1 -11 -2.5t-8 -1.5q1 0 5 -1.5t8.5 -3t8.5 -2.5q17 -8 28.5 -21t17.5 -25.5t9 -34.5t3.5 -36t0.5 -40q0 -101 -16 -141q-11 -27 -33.5 -45.5t-48 -24.5t-38.5 -8t-23 -2q-82 0 -122 50q-31 39 -31 113q0 40 0.5 58t1.5 45.5
t4.5 39t9 28t14.5 24t21.5 15t30.5 12.5q-46 8 -59.5 42.5t-13.5 125.5q0 22 1 37.5t9 43t22.5 45t44.5 31.5t72 14q83 0 123 -50q26 -35 26 -115zM255 535q0 15 0.5 30t-3 29.5t-10 25.5t-19.5 18t-33 7q-43 0 -56 -28.5t-13 -86.5q0 -26 0.5 -38.5t4 -31t10.5 -26.5
t21 -14.5t34 -6.5q18 0 30 6t18.5 14t10 27t4 32.5t1.5 42.5zM257 198q0 28 -0.5 41.5t-4 34t-10.5 30t-21 17t-34 7.5q-26 0 -44 -13q-17 -14 -21 -36.5t-4 -84.5q0 -28 0.5 -41.5t4 -33t10.5 -28t20.5 -15t33.5 -6.5q25 0 40 9t21 30.5t7.5 38t1.5 50.5z" />
    <glyph glyph-name="nine" unicode="9" 
d="M37 186h81q-1 -50 0 -54q0 -63 66 -63q19 0 32 6.5t20 14.5t11 27t4.5 32t1.5 41v114q-44 -44 -102 -44q-121 0 -121 163q0 150 9 191q11 54 51.5 77.5t93.5 23.5q49 0 79 -15q60 -30 71 -104q3 -17 3 -194q0 -228 -3 -275q-12 -136 -151 -136q-54 0 -93.5 25.5
t-48.5 70.5q-4 17 -4 99zM254 483q0 81 -1 89q-4 34 -22.5 50t-43.5 16q-24 0 -45 -15t-25 -52q-3 -25 -3 -117l1 -52q2 -31 20.5 -48.5t50.5 -17.5t50 20t18 57v70z" />
    <glyph glyph-name="colon" unicode=":" horiz-adv-x="208" 
d="M168 477v-118h-85v118h85zM168 118v-118h-85v118h85z" />
    <glyph glyph-name="semicolon" unicode=";" horiz-adv-x="208" 
d="M82 118h85v-113q0 -29 -2 -46t-9.5 -39.5t-25.5 -36.5t-48 -20v51q14 4 22 12t11.5 21.5t4 23t0.5 29.5h-38v118zM167 477v-118h-85v118h85z" />
    <glyph glyph-name="less" unicode="&#x3c;" horiz-adv-x="500" 
d="M500 155v-87l-500 242v86l500 242v-87l-401 -198z" />
    <glyph glyph-name="equal" unicode="=" horiz-adv-x="500" 
d="M500 238v-78h-500v78h500zM500 419v-78h-500v78h500z" />
    <glyph glyph-name="greater" unicode="&#x3e;" horiz-adv-x="500" 
d="M500 310l-500 -242v87l401 198l-401 198v87l500 -242v-86z" />
    <glyph glyph-name="question" unicode="?" horiz-adv-x="396" 
d="M265 118v-118h-85v118h85zM57 466v100q0 85 44 118q41 33 105 33q80 0 124 -53q30 -38 30 -113q0 -55 -5 -81.5t-18 -49.5q-1 -2 -51 -83q-23 -39 -27.5 -60t-3.5 -88h-66q0 89 4 108q5 28 52 117q21 40 25.5 62t4.5 92q0 32 -20.5 50.5t-51.5 18.5q-19 0 -32.5 -6
t-20.5 -13.5t-10.5 -20.5t-4 -21t-0.5 -20v-90h-78z" />
    <glyph glyph-name="at" unicode="@" horiz-adv-x="896" 
d="M787 76l33 -40q-167 -160 -366 -160q-49 0 -99 10.5t-102.5 37t-92.5 66t-65.5 103t-25.5 142.5q0 92 34.5 179t94.5 152.5t147 105.5t185 40q134 0 215.5 -78t81.5 -211q0 -88 -33 -170t-86.5 -132.5t-110.5 -50.5q-27 0 -45 9t-25.5 25t-10 26t-3.5 25
q-62 -84 -144 -84q-8 0 -17.5 1t-32 10t-38.5 24.5t-29 49.5t-13 80q0 108 64.5 195t147.5 87q77 0 114 -85l15 62h68l-33 -150q-28 -136 -28 -175q0 -15 4.5 -22t16.5 -17h10q47 0 99 90t52 199q0 115 -68 176.5t-180 61.5q-101 0 -192 -55.5t-147.5 -154.5t-56.5 -216
q0 -61 18.5 -111.5t50 -85t74 -58.5t88.5 -35t95 -11q184 0 336 145zM541 348q0 55 -25.5 80t-56.5 25q-42 0 -75.5 -36t-49.5 -84t-16 -95q0 -29 8 -50t17.5 -31t23 -15.5t19 -6t10.5 -0.5q58 0 101.5 66.5t43.5 146.5z" />
    <glyph glyph-name="A" unicode="A" horiz-adv-x="396" 
d="M240 706l156 -706h-92l-25 136h-164l-24 -136h-91l152 706h88zM130 212h134l-69 363z" />
    <glyph glyph-name="B" unicode="B" horiz-adv-x="437" 
d="M50 706h129q40 0 60 -1t45.5 -6t42.5 -16q64 -39 64 -143q0 -74 -28.5 -116.5t-85.5 -42.5q67 0 96 -46.5t29 -118.5q0 -64 -9.5 -102t-36.5 -67q-31 -32 -68 -39.5t-117 -7.5h-121v706zM138 627v-211h60q26 0 39.5 2t32 11t27 32.5t8.5 61.5q0 37 -8 59.5t-27 31.5
t-34.5 11t-47.5 2h-50zM186 340h-48v-264h50q27 0 40.5 1t33.5 6.5t29 17.5t16.5 34.5t7.5 56.5q0 52 -7 82.5t-25.5 44.5t-38 17.5t-58.5 3.5z" />
    <glyph glyph-name="C" unicode="C" horiz-adv-x="417" 
d="M298 249h82q0 -115 -7 -147q-4 -20 -11 -35.5t-23.5 -35t-48 -30.5t-76.5 -11q-75 0 -114.5 36.5t-48.5 92.5q-7 47 -7 226q0 189 8 239q3 16 6 26.5t14.5 33t28 36.5t48 25.5t72.5 11.5q51 0 93.5 -24.5t54.5 -77.5q9 -37 7 -131h-82v53q0 19 -0.5 30t-4.5 27.5
t-11 25.5t-21.5 16t-35.5 7q-26 0 -44 -9t-25.5 -25.5t-10 -26.5t-4.5 -26q-6 -51 -6 -212q0 -172 6 -214q15 -66 82 -66q60 0 75 67q4 18 4 118z" />
    <glyph glyph-name="D" unicode="D" horiz-adv-x="437" 
d="M181 0h-131v706h133q45 0 68.5 -2t54.5 -14t51 -37q24 -30 30 -73.5t6 -175.5q0 -83 -2 -179q-1 -62 -6 -97t-22 -64q-19 -30 -50.5 -45t-56.5 -17t-75 -2zM138 625v-547h57q49 0 74 12.5t32 55.5q6 40 6 169q0 90 -1 158q-1 67 -6.5 94.5t-26.5 42.5q-16 11 -38 13
t-97 2z" />
    <glyph glyph-name="E" unicode="E" horiz-adv-x="396" 
d="M368 79v-79h-318v706h310v-79h-222v-210h195v-80h-195v-258h230z" />
    <glyph glyph-name="F" unicode="F" 
d="M139 342v-342h-89v706h311v-79h-222v-208h193v-77h-193z" />
    <glyph glyph-name="G" unicode="G" horiz-adv-x="437" 
d="M395 365v-365h-74v49q-17 -17 -28.5 -26.5t-40 -21t-61.5 -11.5q-34 0 -71 18t-56 64q-7 18 -10.5 36t-6.5 71.5t-3 147.5q0 184 7 242q3 29 11.5 52.5t26 46.5t51.5 36t81 13q105 0 144 -56q17 -24 20.5 -52t3.5 -119h-83q0 81 -4 100q-11 53 -76 53q-30 0 -49 -9
t-27 -28.5t-10 -34.5t-4 -44q-4 -78 -4 -239q0 -22 5 -134q3 -91 79 -91q43 0 71 28q14 15 20 39t6 87v72h-104v76h186z" />
    <glyph glyph-name="H" unicode="H" horiz-adv-x="437" 
d="M387 706v-706h-88v329h-161v-329h-88v706h88v-300h161v300h88z" />
    <glyph glyph-name="I" unicode="I" horiz-adv-x="187" 
d="M137 706v-706h-87v706h87z" />
    <glyph glyph-name="J" unicode="J" horiz-adv-x="396" 
d="M262 706h87v-475q0 -111 -11 -144q-32 -97 -162 -97q-65 0 -101.5 29t-47.5 71q-8 29 -8 122h85q0 -84 8 -105q17 -42 63 -42q80 -1 86 80q1 14 1 81v480z" />
    <glyph glyph-name="K" unicode="K" horiz-adv-x="417" 
d="M250 440l166 -440h-97l-126 361l-56 -85v-276h-87v706h87v-304l182 304h97z" />
    <glyph glyph-name="L" unicode="L" horiz-adv-x="354" 
d="M346 79v-79h-296v706h89v-627h207z" />
    <glyph glyph-name="M" unicode="M" horiz-adv-x="562" 
d="M512 707v-707h-81l12 639l-105 -639h-111l-106 639l14 -639h-85v707h132l99 -631l97 631h134z" />
    <glyph glyph-name="N" unicode="N" horiz-adv-x="437" 
d="M387 707v-707h-124l-138 612l12 -612h-86v707h120l143 -619l-12 619h85z" />
    <glyph glyph-name="O" unicode="O" horiz-adv-x="437" 
d="M393 363q0 -83 -6 -189q-2 -39 -9 -67t-24 -57t-52.5 -44.5t-87.5 -15.5q-58 0 -95 20q-55 30 -68 105q-7 42 -7 214q0 168 5 231q1 17 4 31t14 39t28.5 42.5t51.5 31t79 13.5q42 0 73 -12.5t47 -28t26 -39.5t12.5 -37t4.5 -31q4 -40 4 -206zM134 314q0 -49 1 -94v-29.5
t1 -32t3 -28t7.5 -27.5t14.5 -20t23.5 -15.5t33.5 -4.5q21 0 36.5 8t23.5 17.5t13 28t6 28.5t2 30q7 97 5 188q0 28 -1 83.5t-1 82.5q-1 24 -2.5 37.5t-8.5 34.5t-24.5 31.5t-45.5 10.5t-46.5 -11.5t-26 -33t-9.5 -34.5t-3 -34q-2 -35 -2 -216z" />
    <glyph glyph-name="P" unicode="P" horiz-adv-x="417" 
d="M138 289v-289h-87v707h144q66 0 102 -10.5t61 -45.5q22 -30 27 -62t5 -97q0 -79 -18 -125.5t-66 -64.5q-24 -9 -51 -11t-117 -2zM138 626v-259h59q58 0 80 16q18 14 22 34.5t4 67.5q0 61 -5.5 87t-26.5 39q-16 11 -38 13t-95 2z" />
    <glyph glyph-name="Q" unicode="Q" horiz-adv-x="437" 
d="M402 -61l-49 -52l-106 104q-4 0 -11.5 -0.5t-13.5 -0.5q-24 0 -42 2t-44 9.5t-45.5 27t-30.5 49.5q-16 44 -16 217q0 216 5 265q2 18 4.5 31.5t14 39.5t29 42.5t51.5 30t80 13.5q89 0 130 -53q23 -31 30.5 -78t7.5 -151q0 -93 -5 -225q-1 -38 -3.5 -60t-9.5 -52
t-22.5 -51t-40.5 -35zM134 363q0 -194 3 -220q1 -13 3.5 -23t10 -25.5t25 -24t43.5 -8.5q27 0 44.5 10t25 30t10 34.5t3.5 38.5q4 100 4 188q0 133 -1 166q-1 21 -2.5 35t-8.5 35t-25 32.5t-45 11.5q-28 0 -46 -10t-26.5 -30.5t-11 -34t-4.5 -38.5q-2 -26 -2 -167z" />
    <glyph glyph-name="R" unicode="R" horiz-adv-x="437" 
d="M296 319l127 -319h-93l-120 309h-73v-309h-87v706h154q33 0 56 -3t49.5 -14t43 -31t27.5 -56.5t11 -87.5q0 -79 -17 -123q-19 -56 -78 -72zM137 626v-247q78 0 98 2t34 11q34 23 34 112q0 28 -1.5 44t-9.5 35.5t-24 29.5q-15 9 -36.5 11t-94.5 2z" />
    <glyph glyph-name="S" unicode="S" horiz-adv-x="396" 
d="M27 166v78h84q0 -82 1 -95q5 -84 85 -84q19 0 36.5 5t35 26.5t17.5 56.5q0 38 -15 63.5t-50 61.5l-96 98q-48 50 -64.5 87.5t-16.5 88.5q0 165 164 165q93 0 129 -58q14 -23 17 -50t3 -111h-77q-2 76 -4 87q-9 57 -73 57q-74 0 -74 -84q0 -37 13.5 -60t55.5 -67l89 -93
q48 -51 66 -86.5t18 -92.5q0 -43 -13 -75t-31.5 -49.5t-43.5 -28t-44.5 -13.5t-38.5 -3q-77 0 -118 35q-55 43 -55 141z" />
    <glyph glyph-name="T" unicode="T" 
d="M231 627v-627h-87v627h-134v79h355v-79h-134z" />
    <glyph glyph-name="U" unicode="U" horiz-adv-x="437" 
d="M301 706h89v-476q0 -71 -3 -102t-14 -56q-35 -82 -154 -82q-120 0 -156 77q-10 23 -13 50t-3 107v482h89v-515q0 -25 0.5 -37.5t5 -32t13 -29.5t25 -18t41.5 -8q27 0 44 8t24 23.5t8.5 26t2.5 28.5q1 28 1 86v468z" />
    <glyph glyph-name="V" unicode="V" 
d="M375 706l-131 -706h-112l-132 706h91l97 -619l98 619h89z" />
    <glyph glyph-name="W" unicode="W" horiz-adv-x="625" 
d="M625 706l-119 -706h-116l-77 585l-81 -585h-116l-116 706h87l87 -619l83 619h113l81 -619l88 619h86z" />
    <glyph glyph-name="X" unicode="X" horiz-adv-x="396" 
d="M248 385l148 -385h-95l-108 306l-101 -306h-92l135 385l-126 321h97l85 -271l79 271h94z" />
    <glyph glyph-name="Y" unicode="Y" horiz-adv-x="396" 
d="M241 277v-277h-91v277l-150 429h94l104 -353l105 353h93z" />
    <glyph glyph-name="Z" unicode="Z" 
d="M353 78v-78h-331v72l232 555h-199v79h298v-67l-236 -561h236z" />
    <glyph glyph-name="bracketleft" unicode="[" horiz-adv-x="313" 
d="M294 -106v-65h-197v889h197v-63h-113v-761h113z" />
    <glyph glyph-name="backslash" unicode="\" horiz-adv-x="292" 
d="M286 0h-83l-198 706h81z" />
    <glyph glyph-name="bracketright" unicode="]" horiz-adv-x="313" 
d="M216 -171h-197v65h113v761h-113v63h197v-889z" />
    <glyph glyph-name="asciicircum" unicode="^" horiz-adv-x="729" 
d="M407 706l180 -369h-97l-124 259l-128 -259h-96l188 369h77z" />
    <glyph glyph-name="underscore" unicode="_" horiz-adv-x="500" 
d="M510 -75v-50h-520v50h520z" />
    <glyph glyph-name="grave" unicode="`" horiz-adv-x="229" 
d="M195 563h-65l-97 108h109z" />
    <glyph glyph-name="a" unicode="a" horiz-adv-x="354" 
d="M309 345v-239q0 -58 4 -75.5t20 -30.5h-98v60q-35 -69 -103 -69q-34 0 -60 15q-52 31 -52 113q0 56 19 83.5t65 59.5q60 40 78 53.5t48 41.5q0 21 -1 32t-6.5 26.5t-18.5 22.5t-35 7q-21 0 -34.5 -6.5t-18.5 -19t-6 -21.5t-1 -25q0 -15 2 -37h-73q-3 68 7 100
q25 73 132 73q66 0 101 -37q22 -22 26.5 -45.5t4.5 -81.5zM230 161v124q-23 -22 -66 -54q-23 -18 -33.5 -28t-20 -31t-9.5 -48q0 -74 54 -74q23 0 43 15q32 24 32 96z" />
    <glyph glyph-name="b" unicode="b" 
d="M118 45v-45h-74v706h79v-247q39 50 98 50q68 0 97 -53q21 -37 21 -151q0 -177 -9 -222q-9 -50 -41.5 -71t-68.5 -21q-56 0 -102 54zM123 309v-114q0 -59 2 -76q10 -66 73 -66q50 0 57 62q3 31 3 137q0 63 -1 90t-7 57.5t-19 40.5t-36 10q-21 0 -41 -13t-27 -43
q-4 -15 -4 -85z" />
    <glyph glyph-name="c" unicode="c" horiz-adv-x="354" 
d="M244 186h76q0 -37 -1 -56.5t-8.5 -50.5t-22 -47t-43 -28.5t-70.5 -12.5q-103 0 -127 79q-12 40 -12 168q0 39 0.5 63t2.5 54t6 47.5t11 37.5t18 30.5t26 20.5t36 14t47 4q40 0 67 -11.5t40.5 -26t20.5 -44t8 -49.5t1 -59h-76q0 33 -0.5 47.5t-3.5 34t-9.5 27.5t-18.5 14
t-31 6q-44 0 -54 -34t-10 -149q0 -91 1 -134q1 -20 3 -33t17 -28.5t42 -15.5q41 0 52.5 30.5t11.5 101.5z" />
    <glyph glyph-name="d" unicode="d" 
d="M331 706v-706h-75v53q-36 -62 -105 -62q-18 0 -31 4q-24 6 -40 21t-24.5 33.5t-13 53t-5.5 63.5t-1 81q0 140 12 179q11 37 39 60t68 23q59 0 95 -49v246h81zM252 248q2 45 0 81.5t-7.5 62.5t-21 40t-41.5 14q-21 0 -34.5 -9t-19.5 -27.5t-7.5 -30.5t-2.5 -34
q-2 -54 -2 -135q0 -48 2 -79q1 -10 1.5 -13.5t3 -15.5t6.5 -18t10.5 -14t17.5 -12t25 -4q20 0 33 8.5t20 21.5t10.5 39.5t4.5 51t2 67.5v6z" />
    <glyph glyph-name="e" unicode="e" horiz-adv-x="354" 
d="M244 155h74q0 -59 -9 -85q-29 -79 -132 -79q-97 0 -128 77q-5 15 -7.5 28t-4 61.5t-1.5 145.5q0 38 2 63t9.5 54.5t22 47t41 29t63.5 11.5q124 0 140 -109q4 -25 4 -165h-201q0 -99 1 -108q7 -71 63 -71q39 0 51 26t12 74zM117 299h126v62q-1 16 -2 25.5t-6.5 26.5
t-19 25.5t-34.5 8.5q-45 0 -58 -42q-6 -19 -6 -106z" />
    <glyph glyph-name="f" unicode="f" horiz-adv-x="229" 
d="M143 440v-440h-79v440h-59v61h59v53q0 27 1 42t7 40t17.5 38.5t35 24t57.5 10.5q20 0 42 -6v-69q-18 6 -32 6q-18 0 -28.5 -6t-14.5 -20.5t-5 -26.5t-1 -37v-49h81v-61h-81z" />
    <glyph glyph-name="g" unicode="g" 
d="M257 500h75v-474q0 -84 -9 -112q-27 -82 -147 -82q-55 0 -95.5 29.5t-40.5 98.5h73q1 -12 2.5 -19.5t7.5 -20t20.5 -19t37.5 -6.5q20 0 34 6.5t21 15t10.5 24t4 25.5t0.5 28v58q-38 -55 -101 -55q-76 0 -101 66q-10 26 -12 60.5t-2 136.5q0 119 9 156q20 93 115 93
q67 0 98 -54v45zM253 243q0 85 -3 127q-3 82 -68 82q-16 0 -27.5 -5t-18.5 -17t-11.5 -23t-6 -32.5t-2 -34.5t-0.5 -39q0 -139 3 -174q4 -69 61 -69t69 61q4 23 4 124z" />
    <glyph glyph-name="h" unicode="h" 
d="M331 344v-344h-79v300q0 31 -0.5 45t-2 35t-5.5 30t-10.5 19t-17.5 13.5t-26 3.5q-16 0 -28 -4.5t-19 -16t-11.5 -22t-6 -31t-2 -33.5t-0.5 -39v-300h-79v706h79v-251q13 16 20.5 24t30 19t49.5 11q52 0 81 -36q27 -33 27 -129z" />
    <glyph glyph-name="i" unicode="i" horiz-adv-x="167" 
d="M123 501v-501h-79v501h79zM123 691v-103h-79v103h79z" />
    <glyph glyph-name="j" unicode="j" horiz-adv-x="167" 
d="M44 501h79v-466q0 -101 -5 -124q-10 -44 -41 -61.5t-88 -17.5q-13 0 -35 2v65h16h31.5t20 6t13.5 10.5t6 24t3 35v54.5v472zM123 691v-103h-79v103h79z" />
    <glyph glyph-name="k" unicode="k" horiz-adv-x="354" 
d="M227 306l129 -306h-85l-98 232l-50 -70v-162h-80v706h80v-434l148 228h92z" />
    <glyph glyph-name="l" unicode="l" horiz-adv-x="167" 
d="M124 706v-706h-81v706h81z" />
    <glyph glyph-name="m" unicode="m" horiz-adv-x="583" 
d="M540 326v-326h-81v327q0 59 -5 78q-13 42 -58 42q-18 0 -31 -8t-19.5 -18t-9.5 -29t-3.5 -31t-0.5 -33v-328h-81v327q0 26 -0.5 39t-3.5 31.5t-9.5 27t-18.5 15.5t-30 7q-19 0 -32 -7.5t-19 -17.5t-9.5 -29t-4 -31.5t-0.5 -35.5v-326h-81v500h76v-50q44 59 107 59
q66 0 98 -59q13 17 21.5 26t31.5 21t51 12q47 0 78 -31q23 -23 28.5 -52.5t5.5 -99.5z" />
    <glyph glyph-name="n" unicode="n" 
d="M331 352v-352h-81v326q0 28 -0.5 41t-3.5 31.5t-9 26.5t-17.5 14.5t-28.5 6.5q-19 0 -32.5 -8t-20 -18.5t-10 -30t-4 -31.5t-0.5 -35v-323h-80v500h76v-46q46 55 107 55q30 0 50.5 -10.5t31 -24t16 -38.5t6 -40.5t0.5 -43.5z" />
    <glyph glyph-name="o" unicode="o" horiz-adv-x="354" 
d="M319 244q0 -122 -11 -164q-22 -89 -132 -89q-88 0 -120 58q-14 25 -17 57.5t-3 130.5q0 140 11 183q24 89 132 89q91 0 123 -65q12 -26 14.5 -55t2.5 -145zM235 245q0 101 -1 127q-2 71 -54 71q-15 0 -25.5 -3.5t-17 -14t-10 -19.5t-5 -30.5t-2 -36.5t-0.5 -48
q0 -112 1 -146q0 -18 1 -27t3.5 -23.5t8 -22t16 -13.5t25.5 -6q42 0 51 37.5t9 154.5z" />
    <glyph glyph-name="p" unicode="p" 
d="M126 41v-200h-83v659h80v-48q13 17 21.5 26t30.5 20t49 11q66 0 96 -56q19 -37 19 -158q0 -142 -6 -191q-16 -113 -114 -113q-55 0 -93 50zM255 261q0 109 -6 135q-10 49 -55 49q-60 0 -65 -88q-3 -23 -3 -130q0 -111 15 -141q17 -35 55 -35q51 0 55 69q4 51 4 141z" />
    <glyph glyph-name="q" unicode="q" 
d="M331 500v-659h-79v209q-37 -59 -100 -59q-43 0 -71.5 27t-37.5 69q-7 39 -7 155q0 139 7 172q10 44 41.5 69.5t70.5 25.5q28 0 50 -12t30.5 -23t18.5 -28v54h77zM253 253q0 65 -4 115q-4 77 -69 77q-25 0 -39 -14.5t-16 -25t-4 -28.5q-2 -25 -2 -136q0 -61 1 -87
t6.5 -54.5t18.5 -37t36 -8.5q18 0 30.5 5t20.5 19.5t12 27t6 41t2.5 47t0.5 59.5z" />
    <glyph glyph-name="r" unicode="r" horiz-adv-x="250" 
d="M126 239v-239h-82v500h77v-94q10 22 17.5 34.5t23.5 32t40 28.5t54 7v-83q-25 0 -39 -1.5t-35 -11t-34 -28.5q-12 -19 -17 -48.5t-5 -96.5z" />
    <glyph glyph-name="s" unicode="s" horiz-adv-x="313" 
d="M161 203l-61 54q-24 21 -35.5 34t-22.5 37t-11 53q0 70 37.5 99t90.5 29q64 0 95 -33q29 -31 29 -123h-71q0 50 -9 67q-13 25 -44 25q-24 0 -38.5 -14t-14.5 -41q0 -23 13.5 -40t48.5 -46l56 -48q22 -18 34 -30.5t24.5 -39.5t12.5 -59q0 -77 -54 -113q-33 -23 -91 -23
q-92 0 -119 65q-12 28 -14 117h77q0 -67 6 -83q14 -35 56 -35q24 0 40.5 16t16.5 45q0 27 -11 44t-41 43z" />
    <glyph glyph-name="t" unicode="t" horiz-adv-x="229" 
d="M221 501v-61h-73v-318q0 -20 2 -31.5t13 -22t31 -10.5q12 0 28 4v-65q-22 -6 -44 -6q-82 0 -102 47q-7 17 -8.5 35.5t-1.5 89.5v277h-60v61h62v134h80v-134h73z" />
    <glyph glyph-name="u" unicode="u" 
d="M331 500v-500h-77v46q-44 -55 -106 -55q-56 0 -81 39q-15 23 -19 54t-4 101v315h80v-328l1 -48q0 -73 58 -73q24 0 39.5 10.5t21 32.5t7 37t1.5 42v327h79z" />
    <glyph glyph-name="v" unicode="v" horiz-adv-x="313" 
d="M312 500l-114 -500h-91l-107 500h87l66 -409l73 409h86z" />
    <glyph glyph-name="w" unicode="w" horiz-adv-x="521" 
d="M521 500l-98 -500h-96l-68 421l-69 -421h-97l-93 500h87l53 -428l65 428h108l65 -422l59 422h84z" />
    <glyph glyph-name="x" unicode="x" horiz-adv-x="333" 
d="M208 268l125 -268h-91l-79 198l-75 -198h-88l120 268l-104 232h93l54 -164l60 164h89z" />
    <glyph glyph-name="y" unicode="y" horiz-adv-x="333" 
d="M235 501h85l-86 -436q-26 -132 -42 -162q-20 -40 -49.5 -53t-70.5 -13h-52v69h36.5t30 3t23 8.5t14.5 17t5 29.5q0 21 -10 61l-113 476h86l79 -403z" />
    <glyph glyph-name="z" unicode="z" horiz-adv-x="292" 
d="M281 66v-66h-272v66l188 366h-163v68h247v-68l-187 -366h187z" />
    <glyph glyph-name="braceleft" unicode="{" horiz-adv-x="354" 
d="M55 239v69q44 2 63.5 30t19.5 106v80q0 35 1.5 55.5t9.5 47t24 44.5q18 21 46.5 32t49 12.5t57.5 2.5v-67q-22 -2 -37 -5.5t-26 -8t-18 -16.5t-11 -21t-5.5 -31t-2 -38t-0.5 -50q0 -36 -0.5 -54t-3 -44.5t-8 -40t-14.5 -29t-24 -24t-36 -13.5v-5q21 -5 36 -13.5
t24.5 -24.5t15 -29.5t7.5 -40.5t2.5 -44t0.5 -53q0 -40 0.5 -57t3.5 -41t8.5 -32.5t17 -19.5t28.5 -14.5t42 -5.5v-67q-37 1 -57.5 2.5t-49 12.5t-46.5 32q-16 19 -24.5 46.5t-9.5 46t-1 51.5v74q0 79 -17 110.5t-66 34.5z" />
    <glyph glyph-name="bar" unicode="|" horiz-adv-x="229" 
d="M154 750v-1000h-80v1000h80z" />
    <glyph glyph-name="braceright" unicode="}" horiz-adv-x="354" 
d="M299 308v-69q-44 -3 -63.5 -31t-19.5 -106v-79q0 -35 -1.5 -55.5t-9.5 -47t-24 -44.5q-19 -21 -47.5 -32t-48.5 -12.5t-57 -2.5v67q22 2 37 5.5t26 8t18 16.5t11 21t5.5 31t2 38t0.5 50q0 35 0.5 53.5t3 44.5t8 40t14.5 29.5t24 24t36 13.5v5q-21 5 -36 13.5t-24.5 24.5
t-15 29t-7.5 40t-2.5 44.5t-0.5 53.5q0 40 -0.5 57t-3.5 41t-8.5 32.5t-17 19.5t-28.5 14.5t-42 5.5v67q37 -1 57.5 -2.5t49 -12.5t46.5 -32q16 -19 24.5 -46.5t9.5 -46t1 -51.5v-74q0 -79 17 -110.5t66 -34.5z" />
    <glyph glyph-name="asciitilde" unicode="~" horiz-adv-x="729" 
d="M567 366l38 -72q-62 -79 -137 -79q-34 0 -99 31q-79 39 -110 39q-27 0 -43.5 -12.5t-51.5 -54.5l-40 71q12 16 21 27t26 26t39 23t47 8q38 0 111 -33q76 -36 102 -36q48 0 97 62z" />
    <glyph glyph-name="exclamdown" unicode="&#xa1;" horiz-adv-x="208" 
d="M41 589v118h85v-118h-85zM41 223l21 292h45l19 -292v-223h-85v223z" />
    <glyph glyph-name="cent" unicode="&#xa2;" horiz-adv-x="354" 
d="M239 183h76q-2 -100 -21 -138t-89 -53v-74h-53v74q-34 4 -57 17.5t-35 28.5t-17.5 47t-6.5 54.5t-1 70.5q0 24 1.5 66t2.5 74.5t1 34.5q3 30 12.5 52.5t20 34.5t27.5 20.5t26.5 11t25.5 5.5v65h53v-65q26 -5 45.5 -14t31 -24t19 -29t10.5 -37t3.5 -39.5t0.5 -44.5h-76v43
q-1 19 -2 29.5t-6.5 26t-18 23t-33.5 7.5q-55 0 -61 -73q-3 -51 -3 -172q0 -76 2 -92q5 -60 59 -60q18 0 30.5 7.5t19 17t9.5 29.5t3.5 34t0.5 42z" />
    <glyph glyph-name="sterling" unicode="&#xa3;" horiz-adv-x="458" 
d="M344 380v-75h-112q21 -78 21 -128q0 -44 -14 -80q35 -26 65 -26q32 0 42.5 27t10.5 76q0 30 -3 59h81q0 -8 0.5 -23.5t0.5 -25.5q0 -23 -0.5 -37.5t-3.5 -41t-11.5 -43.5t-21 -35.5t-35 -27.5t-51.5 -9q-55 0 -115 48q-41 -46 -98 -46q-44 0 -66.5 26.5t-22.5 58.5
q0 34 23.5 59.5t64.5 25.5q32 0 67 -24q2 24 2 32q0 53 -29 135h-98v75h74q-21 57 -28 87.5t-7 77.5q0 25 2.5 44.5t12.5 44.5t28 42t52 29t80 12q33 0 58 -7t41 -19.5t27.5 -29.5t16.5 -37.5t8.5 -43t3 -46t-0.5 -46.5h-87q0 39 -0.5 57t-4 42t-11.5 33.5t-22 17t-36 7.5
q-37 0 -58 -26t-21 -71q0 -81 41 -168h134zM140 87q-23 17 -38 17q-13 0 -19.5 -4.5t-7 -7.5t-0.5 -9q0 -20 26 -20q18 0 39 24z" />
    <glyph glyph-name="currency" unicode="&#xa4;" horiz-adv-x="667" 
d="M624 570l-75 -75q18 -30 26 -45t16 -44t8 -64q0 -38 -8 -69t-16.5 -46.5t-26.5 -43.5l76 -77l-61 -59l-75 76q-29 -18 -45.5 -26.5t-46 -16t-65.5 -7.5q-35 0 -65.5 8.5t-46.5 17t-41 25.5l-76 -76l-60 60l76 75q-18 28 -26.5 43.5t-16.5 46t-8 67.5q0 85 51 155l-75 75
l60 60l75 -75q74 51 155 51q36 0 66 -8t45.5 -16.5t43.5 -26.5l76 75zM519 340q0 86 -56.5 137t-125.5 51q-84 0 -137 -54.5t-53 -130.5q0 -88 56.5 -140t127.5 -52q81 0 134.5 54t53.5 135z" />
    <glyph glyph-name="yen" unicode="&#xa5;" horiz-adv-x="396" 
d="M241 190v-190h-88v190h-117v57h117q0 37 -9 54h-108v58h86l-122 347h95l103 -358l103 358h94l-124 -347h88v-58h-109q-9 -17 -9 -54h118v-57h-118z" />
    <glyph glyph-name="brokenbar" unicode="&#xa6;" horiz-adv-x="229" 
d="M75 -175v350h80v-350h-80zM155 325h-80v350h80v-350z" />
    <glyph glyph-name="section" unicode="&#xa7;" horiz-adv-x="417" 
d="M32 99h87v-37.5t4 -34.5t12 -28.5t25 -19.5t42 -7q80 0 80 87q0 55 -48 84q-16 8 -115 52q-21 9 -33 16.5t-29.5 22t-26 36.5t-8.5 50q0 66 67 130q-39 42 -39 104q0 32 5 56t20.5 49.5t49.5 39.5t86 14q41 0 70.5 -10t45 -24t24.5 -36t11 -38.5t2 -38.5q0 -6 -0.5 -19
t-0.5 -20h-80q1 41 0 51q-7 64 -75 64q-75 0 -75 -79q0 -26 11 -44.5t47 -35.5q12 -6 72 -31q33 -15 48.5 -23t37.5 -24.5t31 -38.5t9 -51q0 -71 -64 -135q14 -14 22 -26t15 -36t7 -55q0 -46 -14 -79.5t-32 -50t-45.5 -25.5t-44.5 -10.5t-39 -1.5q-100 0 -139 61
q-16 25 -19.5 53t-3.5 89zM281 212q38 36 38 75q0 34 -22.5 51.5t-78.5 39.5q-30 12 -88 38q-39 -34 -39 -71q0 -20 13 -37t24.5 -24t30.5 -16q106 -47 122 -56z" />
    <glyph glyph-name="dieresis" unicode="&#xa8;" horiz-adv-x="229" 
d="M231 666v-103h-78v103h78zM76 666v-103h-78v103h78z" />
    <glyph glyph-name="copyright" unicode="&#xa9;" horiz-adv-x="833" 
d="M557 258l56 -49q-76 -91 -188 -91q-107 0 -172.5 68.5t-65.5 165.5q0 105 67.5 172.5t168.5 67.5q50 0 92 -17.5t58.5 -32.5t39.5 -40l-56 -53q-22 22 -35 33.5t-40 23t-58 11.5q-64 0 -111.5 -44t-47.5 -120q0 -71 47 -115.5t112 -44.5q34 0 63.5 13t41 23.5t28.5 28.5z
M772 352q0 -146 -102 -250.5t-254 -104.5q-145 0 -250 101t-105 256q0 150 104 252.5t251 102.5q151 0 253.5 -103t102.5 -254zM740 352q0 137 -92.5 231t-229.5 94t-231 -95t-94 -228q0 -138 95 -231.5t229 -93.5q136 0 229.5 94.5t93.5 228.5z" />
    <glyph glyph-name="ordfeminine" unicode="&#xaa;" horiz-adv-x="229" 
d="M196 603v-155q0 -33 21 -56h-76v21q-20 -25 -55 -25q-34 0 -53 24t-19 59q0 25 10.5 45t21.5 29.5t34 25.5q31 21 57 41q-1 18 -2 25.5t-7.5 15t-20.5 7.5q-13 0 -20 -7.5t-8 -14t-1 -18.5q0 -16 1 -25h-54v32q0 11 0.5 18.5t5 21.5t13 22.5t26 15.5t41.5 7t41 -7.5
t25.5 -17t13 -26.5t5 -28t0.5 -30zM139 553q-44 -34 -54.5 -46.5t-10.5 -36.5q0 -20 13 -29.5t28 -1.5q16 8 20 26t4 88z" />
    <glyph glyph-name="guillemotleft" unicode="&#xab;" horiz-adv-x="354" 
d="M162 198v-118l-140 158v86l140 156v-116l-74 -83zM324 198v-118l-140 158v86l140 156v-116l-74 -83z" />
    <glyph glyph-name="logicalnot" unicode="&#xac;" horiz-adv-x="667" 
d="M587 0v252h-587v79h667v-331h-80z" />
    <glyph glyph-name="registered" unicode="&#xae;" horiz-adv-x="833" 
d="M266 580h146q75 0 105 -11q35 -12 53.5 -41t18.5 -63q0 -83 -92 -106q31 -13 44.5 -34t19.5 -60q14 -93 34 -134h-91q-12 24 -24 98q-11 72 -31 88t-103 16v-202h-80v449zM347 518v-121h66q18 0 29.5 1t29.5 6.5t27.5 19t9.5 35.5q0 38 -32 53q-16 6 -79 6h-51zM773 352
q0 -145 -102 -250t-255 -105q-143 0 -249 101t-106 255q0 151 104.5 253.5t250.5 102.5q150 0 253.5 -103t103.5 -254zM741 352q0 136 -93 230.5t-232 94.5q-133 0 -228 -94t-95 -230t95 -230t229 -94q138 0 231 95.5t93 227.5z" />
    <glyph glyph-name="macron" unicode="&#xaf;" horiz-adv-x="229" 
d="M222 639v-64h-216v64h216z" />
    <glyph glyph-name="macron" unicode="&#x2c9;" horiz-adv-x="229" 
d="M222 639v-64h-216v64h216z" />
    <glyph glyph-name="degree" unicode="&#xb0;" horiz-adv-x="354" 
d="M177 755q67 0 114 -47.5t47 -113.5q0 -67 -47 -114t-114 -47t-114.5 47t-47.5 114t47.5 114t114.5 47zM177 675q-33 0 -56 -23t-23 -56t23 -56t56 -23t56 23t23 56t-23.5 56t-55.5 23z" />
    <glyph glyph-name="plusminus" unicode="&#xb1;" horiz-adv-x="500" 
d="M291 342v-181h-79v181h-181v79h181v179h79v-179h178v-79h-178zM469 79v-79h-438v79h438z" />
    <glyph glyph-name="twosuperior" unicode="&#xb2;" horiz-adv-x="250" 
d="M224 325v-60h-202v60l89 151q30 50 37 69t7 53q0 51 -33 51q-15 0 -22.5 -9.5t-8.5 -18t-1 -25.5v-56h-63v60q0 112 94 112q34 0 56 -14.5t30 -39t10 -37.5t2 -27q0 -66 -40 -132l-84 -137h129z" />
    <glyph glyph-name="threesuperior" unicode="&#xb3;" horiz-adv-x="250" 
d="M91 571h-63q0 28 0.5 42t5 36.5t13.5 33.5t28 20t47 9q95 0 95 -118q0 -48 -6.5 -64t-26.5 -31q23 -13 31.5 -34.5t8.5 -89.5q0 -11 -0.5 -20.5t-6 -28.5t-15.5 -32.5t-30.5 -24t-49.5 -10.5q-60 0 -85 35q-12 16 -14.5 33.5t-2.5 79.5h63q-2 -52 3.5 -69.5t31.5 -17.5
q12 0 19 3.5t11.5 8.5t6 18t2 22.5t0.5 32.5q0 33 -9 47t-39 14q-3 0 -12 -0.5t-12 -0.5v63q6 -1 20 -1q24 0 35.5 11t11.5 45q0 28 -1 39.5t-8.5 20t-22.5 8.5q-20 0 -25.5 -18.5t-3.5 -61.5z" />
    <glyph glyph-name="acute" unicode="&#xb4;" horiz-adv-x="229" 
d="M195 671l-98 -108h-64l53 108h109z" />
    <glyph glyph-name="mu" unicode="&#xb5;" 
d="M254 0v46q-10 -16 -16.5 -24.5t-23 -19.5t-35.5 -11q-31 0 -55 26v-176h-80v659h80v-346q0 -24 1 -37t6 -31t18 -26.5t34 -8.5q24 0 39.5 10.5t21 32.5t7 37t1.5 42v327h79v-500h-77z" />
    <glyph glyph-name="mu" unicode="&#x3bc;" 
d="M254 0v46q-10 -16 -16.5 -24.5t-23 -19.5t-35.5 -11q-31 0 -55 26v-176h-80v659h80v-346q0 -24 1 -37t6 -31t18 -26.5t34 -8.5q24 0 39.5 10.5t21 32.5t7 37t1.5 42v327h79v-500h-77z" />
    <glyph glyph-name="paragraph" unicode="&#xb6;" horiz-adv-x="667" 
d="M309 706h230v-54h-34v-818h-58v818h-144v-818h-58v485q-25 5 -38.5 9t-33 15t-35.5 28q-51 52 -51 135q0 20 3.5 40.5t17 51t36 53t65.5 39t100 16.5z" />
    <glyph glyph-name="periodcentered" unicode="&#xb7;" horiz-adv-x="167" 
d="M126 327v-118h-85v118h85z" />
    <glyph glyph-name="periodcentered" unicode="&#x2219;" horiz-adv-x="167" 
d="M126 327v-118h-85v118h85z" />
    <glyph glyph-name="cedilla" unicode="&#xb8;" horiz-adv-x="229" 
d="M21 -198l12 25q31 -14 55 -14q25 0 41 15t16 32t-11 29t-29 12q-11 0 -29 -13q-5 2 -20 7l38 109h26l-26 -78q26 10 45 10q28 0 48 -17.5t20 -46.5q0 -35 -30 -62t-79 -27q-35 0 -77 19z" />
    <glyph glyph-name="onesuperior" unicode="&#xb9;" horiz-adv-x="250" 
d="M164 706v-441h-68v335h-71v54q47 0 63.5 8.5t16.5 43.5h59z" />
    <glyph glyph-name="ordmasculine" unicode="&#xba;" horiz-adv-x="229" 
d="M207 554q0 -40 -0.5 -58t-5 -44t-14 -37t-27 -19.5t-44.5 -8.5q-74 0 -88 60q-5 20 -5 107q0 36 0.5 53t5 41.5t14 35.5t27 19.5t44.5 8.5q23 0 39 -4.5t26.5 -16t16 -22t8 -33t3 -37t0.5 -45.5zM143 555q0 69 -4.5 87t-23.5 18q-23 0 -27 -28q-1 -14 -1 -77
q0 -81 4 -99.5t24 -18.5q25 0 27 39q1 13 1 79z" />
    <glyph glyph-name="guillemotright" unicode="&#xbb;" horiz-adv-x="354" 
d="M332 238l-140 -158v118l74 83l-74 83v116l140 -156v-86zM170 238l-140 -158v118l74 83l-74 83v116l140 -156v-86z" />
    <glyph glyph-name="onequarter" unicode="&#xbc;" horiz-adv-x="625" 
d="M164 706v-441h-68v335h-71v54q47 0 63.5 8.5t16.5 43.5h59zM509 706l-345 -706h-48l348 706h45zM568 96v-96h-64v96h-111v67l89 278h86v-286h38v-59h-38zM450 155h54l2 184z" />
    <glyph glyph-name="onehalf" unicode="&#xbd;" horiz-adv-x="625" 
d="M164 706v-441h-68v335h-71v54q47 0 63.5 8.5t16.5 43.5h59zM495 706l-344 -706h-49l348 706h45zM599 60v-60h-202v60l89 151q30 50 37 69t7 53q0 51 -33 51q-15 0 -22.5 -9.5t-8.5 -18t-1 -25.5v-56h-63v60q0 112 94 112q34 0 56 -14.5t30 -39t10 -37.5t2 -27
q0 -66 -40 -132l-84 -137h129z" />
    <glyph glyph-name="threequarters" unicode="&#xbe;" horiz-adv-x="625" 
d="M526 706l-345 -706h-49l348 706h46zM568 96v-96h-64v96h-111v67l89 278h86v-286h38v-59h-38zM450 155h54l2 183zM91 571h-63q0 28 0.5 42t5 36.5t13.5 33.5t28 20t47 9q95 0 95 -118q0 -48 -6.5 -64t-26.5 -31q23 -13 31.5 -34.5t8.5 -89.5q0 -11 -0.5 -20.5t-6 -28.5
t-15.5 -32.5t-30.5 -24t-49.5 -10.5q-60 0 -85 35q-12 16 -14.5 33.5t-2.5 79.5h63q-2 -52 3.5 -69.5t31.5 -17.5q12 0 19 3.5t11.5 8.5t6 18t2 22.5t0.5 32.5q0 33 -9 47t-39 14q-3 0 -12 -0.5t-12 -0.5v63q6 -1 20 -1q24 0 35.5 11t11.5 45q0 28 -1 39.5t-8.5 20
t-22.5 8.5q-20 0 -25.5 -18.5t-3.5 -61.5z" />
    <glyph glyph-name="questiondown" unicode="&#xbf;" horiz-adv-x="396" 
d="M131 589v118h85v-118h-85zM338 241v-100q0 -85 -44 -118q-42 -33 -104 -33q-81 0 -125 53q-30 38 -30 113q0 55 5 81.5t18 49.5q29 50 52 83q23 38 27.5 59.5t3.5 88.5h66q0 -89 -4 -108q-5 -28 -52 -117q-21 -39 -26 -61.5t-5 -92.5q0 -32 21 -50.5t52 -18.5
q23 0 38 7.5t20.5 22.5t7 25t1.5 26v90h78z" />
    <glyph glyph-name="Agrave" unicode="&#xc0;" horiz-adv-x="396" 
d="M240 706l156 -706h-92l-25 136h-164l-24 -136h-91l152 706h88zM130 212h134l-69 363zM243 775h-64l-98 108h109z" />
    <glyph glyph-name="Aacute" unicode="&#xc1;" horiz-adv-x="396" 
d="M240 706l156 -706h-92l-25 136h-164l-24 -136h-91l152 706h88zM130 212h134l-69 363zM316 883l-98 -108h-64l53 108h109z" />
    <glyph glyph-name="Acircumflex" unicode="&#xc2;" horiz-adv-x="396" 
d="M240 706l156 -706h-92l-25 136h-164l-24 -136h-91l152 706h88zM130 212h134l-69 363zM70 773l101 110h65l99 -110h-88l-53 63l-57 -63h-67z" />
    <glyph glyph-name="Atilde" unicode="&#xc3;" horiz-adv-x="396" 
d="M240 706l156 -706h-92l-25 136h-164l-24 -136h-91l152 706h88zM130 212h134l-69 363zM289 871h36q-3 -50 -26 -70t-49 -20q-13 0 -60 16q-40 15 -53 15q-25 0 -28 -31h-36q2 47 25 68.5t51 21.5q16 0 88 -25q16 -6 26 -6q11 0 17 6t7 11t2 14z" />
    <glyph glyph-name="Adieresis" unicode="&#xc4;" horiz-adv-x="396" 
d="M240 706l156 -706h-92l-25 136h-164l-24 -136h-91l152 706h88zM130 212h134l-69 363zM328 882v-106h-83v106h83zM150 882v-106h-83v106h83z" />
    <glyph glyph-name="Aring" unicode="&#xc5;" horiz-adv-x="396" 
d="M240 706l156 -706h-92l-25 136h-164l-24 -136h-91l152 706h88zM130 212h134l-69 363zM198 901q33 0 57 -23.5t24 -56.5q0 -34 -24 -57.5t-57 -23.5t-56.5 24t-23.5 57t23.5 56.5t56.5 23.5zM199 858q-15 0 -26 -10.5t-11 -26.5q0 -15 11 -25.5t26 -10.5t25.5 11t10.5 25
q0 16 -10.5 26.5t-25.5 10.5z" />
    <glyph glyph-name="AE" unicode="&#xc6;" horiz-adv-x="625" 
d="M605 79v-79h-308v154h-153l-52 -154h-92l249 706h344v-79h-209v-210h179v-80h-179v-258h221zM170 231h127v386z" />
    <glyph glyph-name="Ccedilla" unicode="&#xc7;" horiz-adv-x="417" 
d="M298 248h82q0 -87 -3 -122t-17 -64q-12 -25 -33.5 -41.5t-46 -22.5t-39.5 -7.5t-28 -0.5l-20 -58q26 10 45 10q28 0 48 -17.5t20 -46.5q0 -35 -30 -62t-79 -27q-35 0 -77 19q2 3 6.5 12t5.5 13q31 -14 55 -14q25 0 41 15t16 32t-11 29t-28 12q-12 0 -30 -13q-5 2 -20 7
l30 89q-15 3 -25 5.5t-30 11.5t-33.5 21.5t-27 36t-18.5 54.5q-7 47 -7 225q0 190 8 240q3 16 6 26.5t14.5 33t28 36.5t48 25.5t72.5 11.5q51 0 93.5 -24.5t54.5 -77.5q9 -37 7 -132h-82v54q0 19 -0.5 30t-4.5 27.5t-11 25.5t-21.5 16t-35.5 7q-26 0 -44 -9t-25.5 -25.5
t-10 -26.5t-4.5 -26q-6 -51 -6 -212q0 -172 6 -214q15 -67 82 -67q22 0 37.5 7.5t23 22t10 21t4.5 17.5q4 23 4 117z" />
    <glyph glyph-name="Egrave" unicode="&#xc8;" horiz-adv-x="396" 
d="M368 79v-79h-318v706h310v-79h-222v-210h195v-80h-195v-258h230zM243 775h-64l-98 108h109z" />
    <glyph glyph-name="Eacute" unicode="&#xc9;" horiz-adv-x="396" 
d="M368 79v-79h-318v706h310v-79h-222v-210h195v-80h-195v-258h230zM316 883l-98 -108h-64l53 108h109z" />
    <glyph glyph-name="Ecircumflex" unicode="&#xca;" horiz-adv-x="396" 
d="M368 79v-79h-318v706h310v-79h-222v-210h195v-80h-195v-258h230zM65 773l101 110h65l99 -110h-88l-53 63l-57 -63h-67z" />
    <glyph glyph-name="Edieresis" unicode="&#xcb;" horiz-adv-x="396" 
d="M368 79v-79h-318v706h310v-79h-222v-210h195v-80h-195v-258h230zM329 882v-106h-83v106h83zM151 882v-106h-83v106h83z" />
    <glyph glyph-name="Igrave" unicode="&#xcc;" horiz-adv-x="187" 
d="M137 706v-706h-87v706h87zM139 775h-64l-98 108h109z" />
    <glyph glyph-name="Iacute" unicode="&#xcd;" horiz-adv-x="187" 
d="M137 706v-706h-87v706h87zM212 883l-98 -108h-64l53 108h109z" />
    <glyph glyph-name="Icircumflex" unicode="&#xce;" horiz-adv-x="187" 
d="M137 706v-706h-87v706h87zM-39 773l101 110h65l99 -110h-88l-53 63l-57 -63h-67z" />
    <glyph glyph-name="Idieresis" unicode="&#xcf;" horiz-adv-x="187" 
d="M137 706v-706h-87v706h87zM225 882v-106h-83v106h83zM47 882v-106h-83v106h83z" />
    <glyph glyph-name="Eth" unicode="&#xd0;" horiz-adv-x="437" 
d="M50 0v355h-49v64h49v287h133q45 0 68.5 -2t55 -14t51.5 -37q25 -30 30 -73.5t5 -178.5v-115q0 -98 -1.5 -127t-8.5 -53q-9 -31 -26 -52t-33.5 -31.5t-45.5 -16t-46.5 -6t-50.5 -0.5h-131zM226 355h-88v-277h43q26 0 41 0.5t30 5.5t22.5 9.5t15 19.5t10 28t5 43t2.5 56v75
q0 167 -3 212q-1 19 -3 32.5t-7.5 24t-9 17.5t-16 12t-20.5 7t-29 3.5t-35 1.5h-46v-206h88v-64z" />
    <glyph glyph-name="Ntilde" unicode="&#xd1;" horiz-adv-x="437" 
d="M387 707v-707h-124l-138 612l12 -612h-86v707h120l143 -619l-12 619h85zM310 871h36q-3 -50 -26 -70t-49 -20q-13 0 -60 16q-40 15 -53 15q-25 0 -28 -31h-36q2 47 25 68.5t51 21.5q16 0 88 -25q16 -6 26 -6q11 0 17 6t7 11t2 14z" />
    <glyph glyph-name="Ograve" unicode="&#xd2;" horiz-adv-x="437" 
d="M393 363q0 -83 -6 -189q-2 -39 -9 -67t-24 -57t-52.5 -44.5t-87.5 -15.5q-58 0 -95 20q-55 30 -68 105q-7 42 -7 214q0 168 5 231q1 17 4 31t14 39t28.5 42.5t51.5 31t79 13.5q42 0 73 -12.5t47 -28t26 -39.5t12.5 -37t4.5 -31q4 -40 4 -206zM134 314q0 -49 1 -94v-29.5
t1 -32t3 -28t7.5 -27.5t14.5 -20t23.5 -15.5t33.5 -4.5q21 0 36.5 8t23.5 17.5t13 28t6 28.5t2 30q7 97 5 188q0 28 -1 83.5t-1 82.5q-1 24 -2.5 37.5t-8.5 34.5t-24.5 31.5t-45.5 10.5t-46.5 -11.5t-26 -33t-9.5 -34.5t-3 -34q-2 -35 -2 -216zM264 775h-64l-98 108h109z
" />
    <glyph glyph-name="Oacute" unicode="&#xd3;" horiz-adv-x="437" 
d="M393 363q0 -83 -6 -189q-2 -39 -9 -67t-24 -57t-52.5 -44.5t-87.5 -15.5q-58 0 -95 20q-55 30 -68 105q-7 42 -7 214q0 168 5 231q1 17 4 31t14 39t28.5 42.5t51.5 31t79 13.5q42 0 73 -12.5t47 -28t26 -39.5t12.5 -37t4.5 -31q4 -40 4 -206zM134 314q0 -49 1 -94v-29.5
t1 -32t3 -28t7.5 -27.5t14.5 -20t23.5 -15.5t33.5 -4.5q21 0 36.5 8t23.5 17.5t13 28t6 28.5t2 30q7 97 5 188q0 28 -1 83.5t-1 82.5q-1 24 -2.5 37.5t-8.5 34.5t-24.5 31.5t-45.5 10.5t-46.5 -11.5t-26 -33t-9.5 -34.5t-3 -34q-2 -35 -2 -216zM337 883l-98 -108h-64l53 108
h109z" />
    <glyph glyph-name="Ocircumflex" unicode="&#xd4;" horiz-adv-x="437" 
d="M393 363q0 -83 -6 -189q-2 -39 -9 -67t-24 -57t-52.5 -44.5t-87.5 -15.5q-58 0 -95 20q-55 30 -68 105q-7 42 -7 214q0 168 5 231q1 17 4 31t14 39t28.5 42.5t51.5 31t79 13.5q42 0 73 -12.5t47 -28t26 -39.5t12.5 -37t4.5 -31q4 -40 4 -206zM134 314q0 -49 1 -94v-29.5
t1 -32t3 -28t7.5 -27.5t14.5 -20t23.5 -15.5t33.5 -4.5q21 0 36.5 8t23.5 17.5t13 28t6 28.5t2 30q7 97 5 188q0 28 -1 83.5t-1 82.5q-1 24 -2.5 37.5t-8.5 34.5t-24.5 31.5t-45.5 10.5t-46.5 -11.5t-26 -33t-9.5 -34.5t-3 -34q-2 -35 -2 -216zM86 773l101 110h65l99 -110
h-88l-53 63l-57 -63h-67z" />
    <glyph glyph-name="Otilde" unicode="&#xd5;" horiz-adv-x="437" 
d="M393 363q0 -83 -6 -189q-2 -39 -9 -67t-24 -57t-52.5 -44.5t-87.5 -15.5q-58 0 -95 20q-55 30 -68 105q-7 42 -7 214q0 168 5 231q1 17 4 31t14 39t28.5 42.5t51.5 31t79 13.5q42 0 73 -12.5t47 -28t26 -39.5t12.5 -37t4.5 -31q4 -40 4 -206zM134 314q0 -49 1 -94v-29.5
t1 -32t3 -28t7.5 -27.5t14.5 -20t23.5 -15.5t33.5 -4.5q21 0 36.5 8t23.5 17.5t13 28t6 28.5t2 30q7 97 5 188q0 28 -1 83.5t-1 82.5q-1 24 -2.5 37.5t-8.5 34.5t-24.5 31.5t-45.5 10.5t-46.5 -11.5t-26 -33t-9.5 -34.5t-3 -34q-2 -35 -2 -216zM310 871h36q-3 -50 -26 -70
t-49 -20q-13 0 -60 16q-40 15 -53 15q-25 0 -28 -31h-36q2 47 25 68.5t51 21.5q16 0 88 -25q16 -6 26 -6q11 0 17 6t7 11t2 14z" />
    <glyph glyph-name="Odieresis" unicode="&#xd6;" horiz-adv-x="437" 
d="M393 363q0 -83 -6 -189q-2 -39 -9 -67t-24 -57t-52.5 -44.5t-87.5 -15.5q-58 0 -95 20q-55 30 -68 105q-7 42 -7 214q0 168 5 231q1 17 4 31t14 39t28.5 42.5t51.5 31t79 13.5q42 0 73 -12.5t47 -28t26 -39.5t12.5 -37t4.5 -31q4 -40 4 -206zM134 314q0 -49 1 -94v-29.5
t1 -32t3 -28t7.5 -27.5t14.5 -20t23.5 -15.5t33.5 -4.5q21 0 36.5 8t23.5 17.5t13 28t6 28.5t2 30q7 97 5 188q0 28 -1 83.5t-1 82.5q-1 24 -2.5 37.5t-8.5 34.5t-24.5 31.5t-45.5 10.5t-46.5 -11.5t-26 -33t-9.5 -34.5t-3 -34q-2 -35 -2 -216zM349 882v-106h-83v106h83z
M171 882v-106h-83v106h83z" />
    <glyph glyph-name="multiply" unicode="&#xd7;" horiz-adv-x="500" 
d="M307 293l150 -152l-56 -56l-150 150l-152 -150l-56 56l152 152l-152 150l56 55l152 -150l150 150l56 -55z" />
    <glyph glyph-name="Oslash" unicode="&#xd8;" horiz-adv-x="437" 
d="M77 45l-22 -45l-36 21l36 73q-11 63 -11 201q0 30 0.5 63t1 60t0.5 49t0.5 35.5t0.5 14.5q1 22 2.5 37t6.5 42t17 45.5t30.5 37t49.5 28.5t71 10q76 0 123 -40l19 38l37 -19l-29 -56q14 -34 18 -76t4 -165q0 -142 -6 -224q-2 -31 -7 -54.5t-16.5 -49.5t-29.5 -42.5
t-49 -27.5t-73 -11q-39 0 -68 9t-42 19.5t-28 26.5zM305 502l-170 -338q3 -102 85 -102q27 0 44 10.5t24.5 31.5t9.5 34.5t3 36.5q7 158 4 327zM134 253l166 329q-3 11 -6 18t-11 19t-23.5 18t-37.5 6q-42 0 -66 -31q-13 -18 -16.5 -44.5t-4.5 -78.5q-1 -17 -1 -117.5
v-118.5z" />
    <glyph glyph-name="Ugrave" unicode="&#xd9;" horiz-adv-x="437" 
d="M301 706h89v-476q0 -71 -3 -102t-14 -56q-35 -82 -154 -82q-120 0 -156 77q-10 23 -13 50t-3 107v482h89v-515q0 -25 0.5 -37.5t5 -32t13 -29.5t25 -18t41.5 -8q27 0 44 8t24 23.5t8.5 26t2.5 28.5q1 28 1 86v468zM264 775h-64l-98 108h109z" />
    <glyph glyph-name="Uacute" unicode="&#xda;" horiz-adv-x="437" 
d="M301 706h89v-476q0 -71 -3 -102t-14 -56q-35 -82 -154 -82q-120 0 -156 77q-10 23 -13 50t-3 107v482h89v-515q0 -25 0.5 -37.5t5 -32t13 -29.5t25 -18t41.5 -8q27 0 44 8t24 23.5t8.5 26t2.5 28.5q1 28 1 86v468zM337 883l-98 -108h-64l53 108h109z" />
    <glyph glyph-name="Ucircumflex" unicode="&#xdb;" horiz-adv-x="437" 
d="M301 706h89v-476q0 -71 -3 -102t-14 -56q-35 -82 -154 -82q-120 0 -156 77q-10 23 -13 50t-3 107v482h89v-515q0 -25 0.5 -37.5t5 -32t13 -29.5t25 -18t41.5 -8q27 0 44 8t24 23.5t8.5 26t2.5 28.5q1 28 1 86v468zM86 773l101 110h65l99 -110h-88l-53 63l-57 -63h-67z
" />
    <glyph glyph-name="Udieresis" unicode="&#xdc;" horiz-adv-x="437" 
d="M301 706h89v-476q0 -71 -3 -102t-14 -56q-35 -82 -154 -82q-120 0 -156 77q-10 23 -13 50t-3 107v482h89v-515q0 -25 0.5 -37.5t5 -32t13 -29.5t25 -18t41.5 -8q27 0 44 8t24 23.5t8.5 26t2.5 28.5q1 28 1 86v468zM349 882v-106h-83v106h83zM171 882v-106h-83v106h83z
" />
    <glyph glyph-name="Yacute" unicode="&#xdd;" horiz-adv-x="396" 
d="M241 277v-277h-91v277l-150 429h94l104 -353l105 353h93zM326 883l-98 -108h-64l53 108h109z" />
    <glyph glyph-name="Thorn" unicode="&#xde;" horiz-adv-x="417" 
d="M138 172v-172h-87v707h87v-118h57q92 0 129 -23q31 -19 46.5 -54t17.5 -61.5t2 -76.5q0 -128 -50 -170q-27 -22 -62.5 -27t-139.5 -5zM138 508v-258h59q71 0 88.5 22.5t17.5 94.5q0 38 -1 59.5t-9.5 39t-15.5 25t-31.5 12t-43 5t-64.5 0.5z" />
    <glyph glyph-name="germandbls" unicode="&#xdf;" horiz-adv-x="396" 
d="M125 515v-515h-81v514q0 89 9 116q9 31 34.5 49.5t49.5 24t49 5.5q41 0 70 -12.5t42.5 -27.5t21 -40t8.5 -38t1 -33q0 -31 -7 -52.5t-21.5 -32.5t-24.5 -15t-28 -9q65 -15 83 -52.5t18 -141.5q0 -96 -5 -133t-20 -64q-35 -61 -115 -61q-16 0 -40 4v68q17 -5 33 -5t27.5 4
t18.5 14.5t11 20.5t5.5 32t2 37t0.5 48q0 120 -12.5 155t-63.5 35q-15 0 -22 -1v72q47 -2 64.5 11t17.5 65q0 18 -2 30.5t-8 26t-19.5 21t-34.5 7.5q-51 0 -60 -45q-2 -12 -2 -82z" />
    <glyph glyph-name="agrave" unicode="&#xe0;" horiz-adv-x="354" 
d="M309 345v-239q0 -58 4 -75.5t20 -30.5h-98v60q-35 -69 -103 -69q-34 0 -60 15q-52 31 -52 113q0 56 19 83.5t65 59.5q60 40 78 53.5t48 41.5q0 21 -1 32t-6.5 26.5t-18.5 22.5t-35 7q-21 0 -34.5 -6.5t-18.5 -19t-6 -21.5t-1 -25q0 -15 2 -37h-73q-3 68 7 100
q25 73 132 73q66 0 101 -37q22 -22 26.5 -45.5t4.5 -81.5zM230 161v124q-23 -22 -66 -54q-23 -18 -33.5 -28t-20 -31t-9.5 -48q0 -74 54 -74q23 0 43 15q32 24 32 96zM229 563h-65l-97 108h109z" />
    <glyph glyph-name="aacute" unicode="&#xe1;" horiz-adv-x="354" 
d="M309 345v-239q0 -58 4 -75.5t20 -30.5h-98v60q-35 -69 -103 -69q-34 0 -60 15q-52 31 -52 113q0 56 19 83.5t65 59.5q60 40 78 53.5t48 41.5q0 21 -1 32t-6.5 26.5t-18.5 22.5t-35 7q-21 0 -34.5 -6.5t-18.5 -19t-6 -21.5t-1 -25q0 -15 2 -37h-73q-3 68 7 100
q25 73 132 73q66 0 101 -37q22 -22 26.5 -45.5t4.5 -81.5zM230 161v124q-23 -22 -66 -54q-23 -18 -33.5 -28t-20 -31t-9.5 -48q0 -74 54 -74q23 0 43 15q32 24 32 96zM296 671l-98 -108h-64l53 108h109z" />
    <glyph glyph-name="acircumflex" unicode="&#xe2;" horiz-adv-x="354" 
d="M309 345v-239q0 -58 4 -75.5t20 -30.5h-98v60q-35 -69 -103 -69q-34 0 -60 15q-52 31 -52 113q0 56 19 83.5t65 59.5q60 40 78 53.5t48 41.5q0 21 -1 32t-6.5 26.5t-18.5 22.5t-35 7q-21 0 -34.5 -6.5t-18.5 -19t-6 -21.5t-1 -25q0 -15 2 -37h-73q-3 68 7 100
q25 73 132 73q66 0 101 -37q22 -22 26.5 -45.5t4.5 -81.5zM230 161v124q-23 -22 -66 -54q-23 -18 -33.5 -28t-20 -31t-9.5 -48q0 -74 54 -74q23 0 43 15q32 24 32 96zM50 563l101 110h66l98 -110h-87l-54 63l-57 -63h-67z" />
    <glyph glyph-name="atilde" unicode="&#xe3;" horiz-adv-x="354" 
d="M309 345v-239q0 -58 4 -75.5t20 -30.5h-98v60q-35 -69 -103 -69q-34 0 -60 15q-52 31 -52 113q0 56 19 83.5t65 59.5q60 40 78 53.5t48 41.5q0 21 -1 32t-6.5 26.5t-18.5 22.5t-35 7q-21 0 -34.5 -6.5t-18.5 -19t-6 -21.5t-1 -25q0 -15 2 -37h-73q-3 68 7 100
q25 73 132 73q66 0 101 -37q22 -22 26.5 -45.5t4.5 -81.5zM230 161v124q-23 -22 -66 -54q-23 -18 -33.5 -28t-20 -31t-9.5 -48q0 -74 54 -74q23 0 43 15q32 24 32 96zM269 659h36q-3 -50 -26 -70t-49 -20q-13 0 -60 16q-40 15 -53 15q-25 0 -28 -31h-36q2 47 25 68.5
t51 21.5q16 0 88 -25q16 -6 26 -6q11 0 17 6t7 11t2 14z" />
    <glyph glyph-name="adieresis" unicode="&#xe4;" horiz-adv-x="354" 
d="M309 345v-239q0 -58 4 -75.5t20 -30.5h-98v60q-35 -69 -103 -69q-34 0 -60 15q-52 31 -52 113q0 56 19 83.5t65 59.5q60 40 78 53.5t48 41.5q0 21 -1 32t-6.5 26.5t-18.5 22.5t-35 7q-21 0 -34.5 -6.5t-18.5 -19t-6 -21.5t-1 -25q0 -15 2 -37h-73q-3 68 7 100
q25 73 132 73q66 0 101 -37q22 -22 26.5 -45.5t4.5 -81.5zM230 161v124q-23 -22 -66 -54q-23 -18 -33.5 -28t-20 -31t-9.5 -48q0 -74 54 -74q23 0 43 15q32 24 32 96zM280 666v-103h-78v103h78zM125 666v-103h-78v103h78z" />
    <glyph glyph-name="aring" unicode="&#xe5;" horiz-adv-x="354" 
d="M309 345v-239q0 -58 4 -75.5t20 -30.5h-98v60q-35 -69 -103 -69q-34 0 -60 15q-52 31 -52 113q0 56 19 83.5t65 59.5q60 40 78 53.5t48 41.5q0 21 -1 32t-6.5 26.5t-18.5 22.5t-35 7q-21 0 -34.5 -6.5t-18.5 -19t-6 -21.5t-1 -25q0 -15 2 -37h-73q-3 68 7 100
q25 73 132 73q66 0 101 -37q22 -22 26.5 -45.5t4.5 -81.5zM230 161v124q-23 -22 -66 -54q-23 -18 -33.5 -28t-20 -31t-9.5 -48q0 -74 54 -74q23 0 43 15q32 24 32 96zM174 709q33 0 57 -23.5t24 -56.5q0 -34 -24 -57.5t-57 -23.5t-56.5 24t-23.5 57t23.5 56.5t56.5 23.5z
M175 666q-15 0 -26 -10.5t-11 -26.5q0 -15 11 -25.5t26 -10.5t25.5 11t10.5 25q0 16 -10.5 26.5t-25.5 10.5z" />
    <glyph glyph-name="ae" unicode="&#xe6;" horiz-adv-x="542" 
d="M429 162h76q0 -81 -19 -113q-33 -58 -121 -58q-67 0 -108 47q-19 -17 -30 -24.5t-31 -15t-44 -7.5q-54 0 -86 31q-33 31 -33 99q0 52 18 80.5t65 59.5q85 58 120 86q0 26 -0.5 39t-5.5 29t-17 23t-33 7t-34 -8.5t-18 -27t-6 -32.5t0 -40h-73q0 56 2 72q13 100 124 100
q60 0 99 -34q44 34 97 34q74 0 109 -50q25 -35 25 -132v-90h-195v-89q0 -15 0.5 -23.5t3.5 -24.5t9 -25t18.5 -16t29.5 -7q21 0 34.5 11t17.5 27.5t6 36t0 35.5zM236 154v116q-3 -2 -28 -20t-30 -22q-25 -19 -36 -29t-21.5 -30.5t-10.5 -45.5q0 -28 14 -48t43 -20
q24 0 41 14q28 22 28 85zM310 301h120v53q0 17 -1 28t-6 28.5t-19 26.5t-35 9t-34 -9t-18 -25.5t-6 -27.5t-1 -29v-54z" />
    <glyph glyph-name="ccedilla" unicode="&#xe7;" horiz-adv-x="354" 
d="M244 186h76q0 -68 -7 -101t-30 -57q-36 -37 -96 -37l-20 -59q26 10 45 10q28 0 48 -17.5t20 -46.5q0 -35 -30 -62t-79 -27q-35 0 -77 19q2 3 6.5 12.5t6.5 12.5q28 -14 54 -14q25 0 41 15t16 32t-11 29t-28 12q-13 0 -29 -13q-15 5 -20 7l30 91q-26 2 -45.5 9.5t-33 16
t-22.5 28t-13.5 33.5t-6.5 45.5t-2.5 51t-0.5 62.5q0 39 0.5 63t2.5 54t6 47.5t11 37.5t18 30.5t26 20.5t36 14t47 4q40 0 67 -11.5t40.5 -26t20.5 -44t8 -49.5t1 -59h-76q0 33 -0.5 47.5t-3.5 34t-9.5 27.5t-18.5 14t-31 6q-44 0 -54 -34t-10 -149q0 -91 1 -134
q1 -20 3 -33t17 -28.5t42 -15.5q41 0 52.5 30.5t11.5 101.5z" />
    <glyph glyph-name="egrave" unicode="&#xe8;" horiz-adv-x="354" 
d="M244 155h74q0 -59 -9 -85q-29 -79 -132 -79q-97 0 -128 77q-5 15 -7.5 28t-4 61.5t-1.5 145.5q0 38 2 63t9.5 54.5t22 47t41 29t63.5 11.5q124 0 140 -109q4 -25 4 -165h-201q0 -99 1 -108q7 -71 63 -71q39 0 51 26t12 74zM117 299h126v62q-1 16 -2 25.5t-6.5 26.5
t-19 25.5t-34.5 8.5q-45 0 -58 -42q-6 -19 -6 -106zM229 563h-65l-97 108h109z" />
    <glyph glyph-name="eacute" unicode="&#xe9;" horiz-adv-x="354" 
d="M244 155h74q0 -59 -9 -85q-29 -79 -132 -79q-97 0 -128 77q-5 15 -7.5 28t-4 61.5t-1.5 145.5q0 38 2 63t9.5 54.5t22 47t41 29t63.5 11.5q124 0 140 -109q4 -25 4 -165h-201q0 -99 1 -108q7 -71 63 -71q39 0 51 26t12 74zM117 299h126v62q-1 16 -2 25.5t-6.5 26.5
t-19 25.5t-34.5 8.5q-45 0 -58 -42q-6 -19 -6 -106zM296 671l-98 -108h-64l53 108h109z" />
    <glyph glyph-name="ecircumflex" unicode="&#xea;" horiz-adv-x="354" 
d="M244 155h74q0 -59 -9 -85q-29 -79 -132 -79q-97 0 -128 77q-5 15 -7.5 28t-4 61.5t-1.5 145.5q0 38 2 63t9.5 54.5t22 47t41 29t63.5 11.5q124 0 140 -109q4 -25 4 -165h-201q0 -99 1 -108q7 -71 63 -71q39 0 51 26t12 74zM117 299h126v62q-1 16 -2 25.5t-6.5 26.5
t-19 25.5t-34.5 8.5q-45 0 -58 -42q-6 -19 -6 -106zM50 563l101 110h66l98 -110h-87l-54 63l-57 -63h-67z" />
    <glyph glyph-name="edieresis" unicode="&#xeb;" horiz-adv-x="354" 
d="M244 155h74q0 -59 -9 -85q-29 -79 -132 -79q-97 0 -128 77q-5 15 -7.5 28t-4 61.5t-1.5 145.5q0 38 2 63t9.5 54.5t22 47t41 29t63.5 11.5q124 0 140 -109q4 -25 4 -165h-201q0 -99 1 -108q7 -71 63 -71q39 0 51 26t12 74zM117 299h126v62q-1 16 -2 25.5t-6.5 26.5
t-19 25.5t-34.5 8.5q-45 0 -58 -42q-6 -19 -6 -106zM295 666v-103h-78v103h78zM140 666v-103h-78v103h78z" />
    <glyph glyph-name="igrave" unicode="&#xec;" horiz-adv-x="167" 
d="M123 500v-500h-79v500h79zM134 563h-65l-97 108h109z" />
    <glyph glyph-name="iacute" unicode="&#xed;" horiz-adv-x="167" 
d="M123 500v-500h-79v500h79zM201 671l-98 -108h-64l53 108h109z" />
    <glyph glyph-name="icircumflex" unicode="&#xee;" horiz-adv-x="167" 
d="M123 500v-500h-79v500h79zM-45 563l101 110h66l98 -110h-87l-54 63l-57 -63h-67z" />
    <glyph glyph-name="idieresis" unicode="&#xef;" horiz-adv-x="167" 
d="M123 500v-500h-79v500h79zM200 666v-103h-78v103h78zM45 666v-103h-78v103h78z" />
    <glyph glyph-name="eth" unicode="&#xf0;" horiz-adv-x="354" 
d="M334 622l-56 -17q26 -52 33.5 -113t7.5 -204q0 -166 -11 -208q-22 -89 -132 -89q-88 0 -120 58q-13 24 -16.5 56.5t-3.5 124.5q0 152 11 191q14 49 47.5 69.5t65.5 20.5q45 0 80 -41q-10 75 -30 114l-110 -34l-16 46l97 30q-29 32 -62 56l67 28q32 -24 62 -61l69 22z
M235 246q0 100 -1 126q-5 72 -54 72q-15 0 -25.5 -3.5t-17 -14t-10 -19.5t-5 -30.5t-2 -36.5t-0.5 -48q0 -112 1 -147q0 -18 1 -27t3.5 -23.5t8 -22t16 -13.5t25.5 -6q42 0 51 37.5t9 155.5z" />
    <glyph glyph-name="ntilde" unicode="&#xf1;" 
d="M331 352v-352h-81v326q0 28 -0.5 41t-3.5 31.5t-9 26.5t-17.5 14.5t-28.5 6.5q-19 0 -32.5 -8t-20 -18.5t-10 -30t-4 -31.5t-0.5 -35v-323h-80v500h76v-46q46 55 107 55q30 0 50.5 -10.5t31 -24t16 -38.5t6 -40.5t0.5 -43.5zM278 659h36q-3 -50 -26 -70t-49 -20
q-13 0 -60 16q-40 15 -53 15q-25 0 -28 -31h-36q2 47 25 68.5t51 21.5q16 0 88 -25q16 -6 26 -6q11 0 17 6t7 11t2 14z" />
    <glyph glyph-name="ograve" unicode="&#xf2;" horiz-adv-x="354" 
d="M319 244q0 -122 -11 -164q-22 -89 -132 -89q-88 0 -120 58q-14 25 -17 57.5t-3 130.5q0 140 11 183q24 89 132 89q91 0 123 -65q12 -26 14.5 -55t2.5 -145zM235 245q0 101 -1 127q-2 71 -54 71q-15 0 -25.5 -3.5t-17 -14t-10 -19.5t-5 -30.5t-2 -36.5t-0.5 -48
q0 -112 1 -146q0 -18 1 -27t3.5 -23.5t8 -22t16 -13.5t25.5 -6q42 0 51 37.5t9 154.5zM229 563h-65l-97 108h109z" />
    <glyph glyph-name="oacute" unicode="&#xf3;" horiz-adv-x="354" 
d="M319 244q0 -122 -11 -164q-22 -89 -132 -89q-88 0 -120 58q-14 25 -17 57.5t-3 130.5q0 140 11 183q24 89 132 89q91 0 123 -65q12 -26 14.5 -55t2.5 -145zM235 245q0 101 -1 127q-2 71 -54 71q-15 0 -25.5 -3.5t-17 -14t-10 -19.5t-5 -30.5t-2 -36.5t-0.5 -48
q0 -112 1 -146q0 -18 1 -27t3.5 -23.5t8 -22t16 -13.5t25.5 -6q42 0 51 37.5t9 154.5zM296 671l-98 -108h-64l53 108h109z" />
    <glyph glyph-name="ocircumflex" unicode="&#xf4;" horiz-adv-x="354" 
d="M319 244q0 -122 -11 -164q-22 -89 -132 -89q-88 0 -120 58q-14 25 -17 57.5t-3 130.5q0 140 11 183q24 89 132 89q91 0 123 -65q12 -26 14.5 -55t2.5 -145zM235 245q0 101 -1 127q-2 71 -54 71q-15 0 -25.5 -3.5t-17 -14t-10 -19.5t-5 -30.5t-2 -36.5t-0.5 -48
q0 -112 1 -146q0 -18 1 -27t3.5 -23.5t8 -22t16 -13.5t25.5 -6q42 0 51 37.5t9 154.5zM50 563l101 110h66l98 -110h-87l-54 63l-57 -63h-67z" />
    <glyph glyph-name="otilde" unicode="&#xf5;" horiz-adv-x="354" 
d="M319 244q0 -122 -11 -164q-22 -89 -132 -89q-88 0 -120 58q-14 25 -17 57.5t-3 130.5q0 140 11 183q24 89 132 89q91 0 123 -65q12 -26 14.5 -55t2.5 -145zM235 245q0 101 -1 127q-2 71 -54 71q-15 0 -25.5 -3.5t-17 -14t-10 -19.5t-5 -30.5t-2 -36.5t-0.5 -48
q0 -112 1 -146q0 -18 1 -27t3.5 -23.5t8 -22t16 -13.5t25.5 -6q42 0 51 37.5t9 154.5zM269 659h36q-3 -50 -26 -70t-49 -20q-13 0 -60 16q-40 15 -53 15q-25 0 -28 -31h-36q2 47 25 68.5t51 21.5q16 0 88 -25q16 -6 26 -6q11 0 17 6t7 11t2 14z" />
    <glyph glyph-name="odieresis" unicode="&#xf6;" horiz-adv-x="354" 
d="M319 244q0 -122 -11 -164q-22 -89 -132 -89q-88 0 -120 58q-14 25 -17 57.5t-3 130.5q0 140 11 183q24 89 132 89q91 0 123 -65q12 -26 14.5 -55t2.5 -145zM235 245q0 101 -1 127q-2 71 -54 71q-15 0 -25.5 -3.5t-17 -14t-10 -19.5t-5 -30.5t-2 -36.5t-0.5 -48
q0 -112 1 -146q0 -18 1 -27t3.5 -23.5t8 -22t16 -13.5t25.5 -6q42 0 51 37.5t9 154.5zM293 666v-103h-78v103h78zM138 666v-103h-78v103h78z" />
    <glyph glyph-name="divide" unicode="&#xf7;" horiz-adv-x="500" 
d="M308 145q0 -23 -16.5 -39t-40.5 -16t-40 16t-16 40t17 40t40 16t39.5 -16t16.5 -41zM308 434q0 -20 -14.5 -37.5t-41.5 -17.5q-24 0 -40.5 15.5t-16.5 38.5q0 24 16 41t41 17t40.5 -17t15.5 -40zM500 330v-79h-500v79h500z" />
    <glyph glyph-name="oslash" unicode="&#xf8;" horiz-adv-x="354" 
d="M66 32l-21 -42l-31 22l31 57q-10 42 -10 176q0 105 5 143t17 62q32 59 122 59q62 0 99 -33l22 35l28 -22l-28 -45q11 -23 14.5 -52.5t3.5 -104.5q0 -141 -7.5 -188.5t-31.5 -72.5q-34 -35 -100 -35q-72 0 -113 41zM234 325l-113 -197q0 -75 53 -75q26 0 40 17t16 31.5
t3 38.5q3 90 1 185zM119 197l112 195q-2 10 -3.5 15.5t-7 15.5t-16 15t-26.5 5q-17 0 -28.5 -7t-17 -15.5t-9 -26t-4 -27t-0.5 -30.5v-140z" />
    <glyph glyph-name="ugrave" unicode="&#xf9;" 
d="M331 500v-500h-77v46q-44 -55 -106 -55q-56 0 -81 39q-15 23 -19 54t-4 101v315h80v-328l1 -48q0 -73 58 -73q24 0 39.5 10.5t21 32.5t7 37t1.5 42v327h79zM238 563h-65l-97 108h109z" />
    <glyph glyph-name="uacute" unicode="&#xfa;" 
d="M331 500v-500h-77v46q-44 -55 -106 -55q-56 0 -81 39q-15 23 -19 54t-4 101v315h80v-328l1 -48q0 -73 58 -73q24 0 39.5 10.5t21 32.5t7 37t1.5 42v327h79zM305 671l-98 -108h-64l53 108h109z" />
    <glyph glyph-name="ucircumflex" unicode="&#xfb;" 
d="M331 500v-500h-77v46q-44 -55 -106 -55q-56 0 -81 39q-15 23 -19 54t-4 101v315h80v-328l1 -48q0 -73 58 -73q24 0 39.5 10.5t21 32.5t7 37t1.5 42v327h79zM59 563l101 110h66l98 -110h-87l-54 63l-57 -63h-67z" />
    <glyph glyph-name="udieresis" unicode="&#xfc;" 
d="M331 500v-500h-77v46q-44 -55 -106 -55q-56 0 -81 39q-15 23 -19 54t-4 101v315h80v-328l1 -48q0 -73 58 -73q24 0 39.5 10.5t21 32.5t7 37t1.5 42v327h79zM306 666v-103h-78v103h78zM151 666v-103h-78v103h78z" />
    <glyph glyph-name="yacute" unicode="&#xfd;" horiz-adv-x="333" 
d="M235 501h85l-86 -436q-26 -132 -42 -162q-20 -40 -49.5 -53t-70.5 -13h-52v69h36.5t30 3t23 8.5t14.5 17t5 29.5q0 21 -10 61l-113 476h86l79 -403zM285 671l-98 -108h-64l53 108h109z" />
    <glyph glyph-name="thorn" unicode="&#xfe;" 
d="M126 41v-200h-83v865h80v-254q13 17 21.5 26t30.5 20t49 11q66 0 96 -56q19 -37 19 -158q0 -142 -6 -191q-16 -113 -114 -113q-26 0 -47 10.5t-28 18t-18 21.5zM255 261q0 109 -6 135q-10 49 -55 49q-57 0 -66 -88q-2 -23 -2 -130q0 -111 15 -141q17 -35 55 -35
q51 0 55 69q4 51 4 141z" />
    <glyph glyph-name="ydieresis" unicode="&#xff;" horiz-adv-x="333" 
d="M235 501h85l-86 -436q-26 -132 -42 -162q-20 -40 -49.5 -53t-70.5 -13h-52v69h36.5t30 3t23 8.5t14.5 17t5 29.5q0 21 -10 61l-113 476h86l79 -403zM284 666v-103h-78v103h78zM129 666v-103h-78v103h78z" />
    <glyph glyph-name="dotlessi" unicode="&#x131;" horiz-adv-x="167" 
d="M123 500v-500h-79v500h79z" />
    <glyph glyph-name="Lslash" unicode="&#x141;" horiz-adv-x="354" 
d="M50 0v250l-50 -55v88l50 55v368h89v-270l130 142v-87l-130 -143v-269h207v-79h-296z" />
    <glyph glyph-name="lslash" unicode="&#x142;" horiz-adv-x="167" 
d="M43 0v307l-43 -46v83l43 47v316h81v-227l43 46v-83l-43 -47v-396h-81z" />
    <glyph glyph-name="OE" unicode="&#x152;" horiz-adv-x="646" 
d="M625 79v-79h-255q-11 0 -77.5 -5t-79.5 -5q-65 0 -106 34q-37 32 -50 86t-13 178q0 259 15 315q5 19 14.5 36t28 36t50.5 30.5t73 11.5q18 0 27 -1q5 -1 34 -4.5t34 -3.5q26 -2 53 -2h242v-79h-209v-210h178v-80h-178v-258h219zM321 246v230q0 70 -3 91q-8 75 -86 75
q-80 0 -92 -94q-5 -42 -5 -205q0 -107 2 -151q1 -22 2.5 -34t7 -32t15 -31t27.5 -20t43 -9q69 0 83 63q6 30 6 117z" />
    <glyph glyph-name="oe" unicode="&#x153;" horiz-adv-x="542" 
d="M431 163h75q-1 -36 -2.5 -52.5t-9 -41t-21.5 -39.5q-34 -39 -100 -39q-59 0 -97 41q-44 -41 -106 -41q-12 0 -25 2t-34 9t-38.5 25t-25.5 45q-11 38 -11 188q0 30 3 93q2 67 21 100q33 56 117 56q53 0 99 -38q44 38 94 38q74 0 112 -54q24 -37 24 -120v-97h-193
q0 -5 -0.5 -36t-0.5 -37q0 -64 9 -82q14 -29 52 -29q20 0 32.5 8.5t17.5 27t6.5 33.5t1.5 40zM238 247q4 131 -8 163q-13 36 -52 36q-55 0 -58 -79q-3 -63 -3 -89q0 -91 1 -123q1 -22 2 -35.5t6.5 -31t18.5 -26.5t33 -9q54 0 57 82q3 75 3 112zM313 303h117q0 68 -3 87
q-1 10 -4 20t-17 22.5t-36 12.5q-57 0 -57 -81v-61z" />
    <glyph glyph-name="Scaron" unicode="&#x160;" horiz-adv-x="396" 
d="M27 166v78h84q0 -82 1 -95q5 -84 85 -84q19 0 36.5 5t35 26.5t17.5 56.5q0 38 -15 63.5t-50 61.5l-96 98q-48 50 -64.5 87.5t-16.5 88.5q0 165 164 165q93 0 129 -58q14 -23 17 -50t3 -111h-77q-2 76 -4 87q-9 57 -73 57q-74 0 -74 -84q0 -37 13.5 -60t55.5 -67l89 -93
q48 -51 66 -86.5t18 -92.5q0 -43 -13 -75t-31.5 -49.5t-43.5 -28t-44.5 -13.5t-38.5 -3q-77 0 -118 35q-55 43 -55 141zM331 883l-101 -110h-66l-98 110h87l54 -63l57 63h67z" />
    <glyph glyph-name="scaron" unicode="&#x161;" horiz-adv-x="313" 
d="M161 203l-61 54q-24 21 -35.5 34t-22.5 37t-11 53q0 70 37.5 99t90.5 29q64 0 95 -33q29 -31 29 -123h-71q0 50 -9 67q-13 25 -44 25q-24 0 -38.5 -14t-14.5 -41q0 -23 13.5 -40t48.5 -46l56 -48q22 -18 34 -30.5t24.5 -39.5t12.5 -59q0 -77 -54 -113q-33 -23 -91 -23
q-92 0 -119 65q-12 28 -14 117h77q0 -67 6 -83q14 -35 56 -35q24 0 40.5 16t16.5 45q0 27 -11 44t-41 43zM289 674l-101 -110h-65l-98 110h87l53 -63l58 63h66z" />
    <glyph glyph-name="Ydieresis" unicode="&#x178;" horiz-adv-x="396" 
d="M241 277v-277h-91v277l-150 429h94l104 -353l105 353h93zM329 882v-106h-83v106h83zM151 882v-106h-83v106h83z" />
    <glyph glyph-name="Zcaron" unicode="&#x17d;" 
d="M353 78v-78h-331v72l232 555h-199v79h298v-67l-236 -561h236zM320 883l-101 -110h-66l-98 110h87l54 -63l57 63h67z" />
    <glyph glyph-name="zcaron" unicode="&#x17e;" horiz-adv-x="292" 
d="M281 66v-66h-272v66l188 366h-163v68h247v-68l-187 -366h187zM285 674l-101 -110h-65l-98 110h87l53 -63l58 63h66z" />
    <glyph glyph-name="florin" unicode="&#x192;" horiz-adv-x="271" 
d="M257 501l-8 -61h-70l-41 -405q-6 -55 -11.5 -82.5t-18.5 -52.5t-35 -33.5t-59 -8.5q-20 0 -42 5l7 68q15 -3 26 -3q27 0 38 22t17 85l42 405h-61l6 61h62l11 112q5 50 25.5 77t80.5 27q13 0 41 -2l-7 -70q-21 1 -34.5 -3.5t-19.5 -16.5t-8 -22t-4 -30l-8 -72h71z" />
    <glyph glyph-name="circumflex" unicode="&#x2c6;" horiz-adv-x="229" 
d="M-18 563l101 110h66l98 -110h-87l-54 63l-57 -63h-67z" />
    <glyph glyph-name="caron" unicode="&#x2c7;" horiz-adv-x="229" 
d="M247 674l-101 -110h-65l-98 110h87l53 -63l58 63h66z" />
    <glyph glyph-name="breve" unicode="&#x2d8;" horiz-adv-x="229" 
d="M167 672h48q-2 -56 -29 -85q-28 -31 -71 -31q-27 0 -51 13q-22 12 -34 33t-13.5 34t-2.5 36h48q3 -58 52 -58q50 0 53 58z" />
    <glyph glyph-name="dotaccent" unicode="&#x2d9;" horiz-adv-x="229" 
d="M153 666v-103h-77v103h77z" />
    <glyph glyph-name="ring" unicode="&#x2da;" horiz-adv-x="229" 
d="M114 709q33 0 57 -23.5t24 -56.5q0 -34 -24 -57.5t-57 -23.5t-56.5 24t-23.5 57t23.5 56.5t56.5 23.5zM115 666q-15 0 -26 -10.5t-11 -26.5q0 -15 11 -25.5t26 -10.5t25.5 11t10.5 25q0 16 -10.5 26.5t-25.5 10.5z" />
    <glyph glyph-name="ogonek" unicode="&#x2db;" horiz-adv-x="229" 
d="M99 0h67q-21 -24 -31.5 -40t-12 -22.5t-1.5 -17.5q0 -2 2.5 -6.5t10 -9.5t18.5 -5q2 0 13.5 0.5t13.5 0.5v-61q-29 0 -42.5 0.5t-34 3.5t-29.5 8.5t-16 16.5t-7 28q0 39 49 104z" />
    <glyph glyph-name="tilde" unicode="&#x2dc;" horiz-adv-x="229" 
d="M205 659h36q-3 -50 -26 -70t-49 -20q-13 0 -60 16q-40 15 -53 15q-25 0 -28 -31h-36q2 47 25 68.5t51 21.5q16 0 88 -25q16 -6 26 -6q11 0 17 6t7 11t2 14z" />
    <glyph glyph-name="hungarumlaut" unicode="&#x2dd;" horiz-adv-x="229" 
d="M125 671l-98 -108h-64l53 108h109zM266 671l-98 -108h-64l53 108h109z" />
    <glyph glyph-name="endash" unicode="&#x2013;" 
d="M354 309v-78h-333v78h333z" />
    <glyph glyph-name="emdash" unicode="&#x2014;" horiz-adv-x="437" 
d="M417 309v-78h-396v78h396z" />
    <glyph glyph-name="quoteleft" unicode="&#x2018;" horiz-adv-x="167" 
d="M126 452h-86v113q0 22 1 36t5.5 33.5t13 32t25.5 24t41 16.5v-52q-26 -8 -32.5 -27t-5.5 -58h38v-118z" />
    <glyph glyph-name="quoteright" unicode="&#x2019;" horiz-adv-x="167" 
d="M40 707h86v-113q0 -22 -1 -36t-5.5 -33.5t-13 -32t-25.5 -24t-41 -16.5v52q26 8 32.5 27t5.5 58h-38v118z" />
    <glyph glyph-name="quotesinglbase" unicode="&#x201a;" horiz-adv-x="167" 
d="M40 118h86v-113q0 -22 -1 -36t-5.5 -33.5t-13 -32t-25.5 -24t-41 -16.5v52q26 8 32.5 27t5.5 58h-38v118z" />
    <glyph glyph-name="quotedblleft" unicode="&#x201c;" horiz-adv-x="313" 
d="M126 452h-85v113q0 29 2 46t9.5 39.5t25.5 36.5t48 20v-52q-18 -5 -26.5 -19t-10 -27.5t-0.5 -38.5h37v-118zM272 452h-86v113q0 29 2 46t9.5 39.5t26 36.5t48.5 20v-52q-26 -7 -32.5 -27t-5.5 -58h38v-118z" />
    <glyph glyph-name="quotedblright" unicode="&#x201d;" horiz-adv-x="313" 
d="M186 706h86v-113q0 -29 -2 -46t-9.5 -39.5t-26 -36.5t-48.5 -20v52q26 7 32.5 27t5.5 58h-38v118zM40 706h86v-113q0 -22 -1 -36.5t-5.5 -34t-13 -31.5t-25.5 -23.5t-41 -16.5v52q26 7 32.5 27t5.5 58h-38v118z" />
    <glyph glyph-name="quotedblbase" unicode="&#x201e;" horiz-adv-x="313" 
d="M186 118h86v-113q0 -22 -1 -36.5t-5.5 -34t-13 -31.5t-25.5 -23.5t-41 -16.5v51q26 8 32.5 28t5.5 58h-38v118zM40 118h86v-113q0 -22 -1 -36.5t-5.5 -34t-13 -31.5t-25.5 -23.5t-41 -16.5v51q26 8 32.5 28t5.5 58h-38v118z" />
    <glyph glyph-name="dagger" unicode="&#x2020;" 
d="M229 394v-507h-79v507h-126v72h126v240h79v-240h123v-72h-123z" />
    <glyph glyph-name="daggerdbl" unicode="&#x2021;" 
d="M227 119v-232h-77v232h-127v73h127v235h-127v73h127v206h77v-206h124v-73h-124v-235h124v-73h-124z" />
    <glyph glyph-name="bullet" unicode="&#x2022;" horiz-adv-x="333" 
d="M297 353q0 -59 -37 -94.5t-90 -35.5q-58 0 -95.5 38t-37.5 92q0 53 38 91.5t93 38.5t92 -36.5t37 -93.5z" />
    <glyph glyph-name="ellipsis" unicode="&#x2026;" horiz-adv-x="1000" 
d="M209 118v-118h-85v118h85zM542 118v-118h-85v118h85zM875 118v-118h-85v118h85z" />
    <glyph glyph-name="perthousand" unicode="&#x2030;" horiz-adv-x="875" 
d="M509 706l-344 -706h-49l348 706h45zM229 487q0 -110 -3 -140q-9 -87 -99 -87q-33 0 -55 9.5t-31.5 27t-12 27t-4.5 24.5q-2 21 -2 229q0 20 0.5 32.5t6 34.5t15.5 34.5t31 23t50 10.5q87 0 101 -85q3 -19 3 -140zM161 484v88q0 25 -0.5 35.5t-4 22.5t-11 16t-20.5 4
q-16 0 -24.5 -9t-10 -18.5t-1.5 -25.5q-1 -35 -1 -158q0 -81 5 -99.5t31 -18.5q15 0 23.5 6t9.5 11.5t2 15.5q2 21 2 130zM604 222q0 -110 -3 -140q-9 -87 -99 -87q-33 0 -55 9.5t-31.5 27t-12 27t-4.5 24.5q-2 21 -2 229q0 20 0.5 32.5t6 34.5t15.5 34.5t31 23t50 10.5
q87 0 101 -85q3 -19 3 -140zM536 219v88q0 25 -0.5 35.5t-4 22.5t-11 16t-20.5 4q-16 0 -24.5 -9t-10 -18.5t-1.5 -25.5q-1 -35 -1 -158q0 -80 5 -99t31 -19q15 0 23.5 6t9.5 11.5t2 15.5q2 21 2 130zM854 222q0 -110 -3 -140q-9 -87 -99 -87q-33 0 -55 9.5t-31.5 27t-12 27
t-4.5 24.5q-2 21 -2 229q0 20 0.5 32.5t6 34.5t15.5 34.5t31 23t50 10.5q87 0 101 -85q3 -19 3 -140zM786 219v88q0 25 -0.5 35.5t-4 22.5t-11 16t-20.5 4q-16 0 -24.5 -9t-10 -18.5t-1.5 -25.5q-1 -35 -1 -158q0 -80 5 -99t31 -19q15 0 23.5 6t9.5 11.5t2 15.5q2 21 2 130z
" />
    <glyph glyph-name="guilsinglleft" unicode="&#x2039;" horiz-adv-x="187" 
d="M160 198v-118l-140 158v86l140 156v-116l-74 -83z" />
    <glyph glyph-name="guilsinglright" unicode="&#x203a;" horiz-adv-x="187" 
d="M168 238l-140 -158v118l74 83l-74 83v116l140 -156v-86z" />
    <glyph glyph-name="fraction" unicode="&#x2044;" horiz-adv-x="125" 
d="M259 706l-344 -706h-49l347 706h46z" />
    <glyph glyph-name="fraction" unicode="&#x2215;" horiz-adv-x="125" 
d="M259 706l-344 -706h-49l347 706h46z" />
    <glyph glyph-name="Euro" unicode="&#x20ac;" 
d="M344 689v-82q-27 29 -84 29q-96 0 -104 -177h160l-16 -68h-149v-36v-36h130l-17 -68h-108q9 -181 103 -181q56 0 85 29v-83q-28 -24 -99 -24q-151 0 -170 259h-57l17 68h34q-1 9 -1 36q0 24 1 36h-51l17 68h38q20 256 173 256q68 0 98 -26z" />
    <glyph glyph-name="trademark" unicode="&#x2122;" horiz-adv-x="687" 
d="M636 706v-332h-57l2 205l3 68l-16 -56l-68 -217h-52l-84 272l4 -67l2 -205h-56v332h79l83 -262l81 262h79zM181 657v-283h-58v283h-107v49h270v-49h-105z" />
    <glyph glyph-name="minus" unicode="&#x2212;" horiz-adv-x="500" 
d="M500 333v-81h-500v81h500z" />
    <glyph glyph-name="fi" unicode="&#xfb01;" horiz-adv-x="396" 
d="M143 440v-440h-79v440h-59v61h59v53q0 27 1 42t7 40t17.5 38.5t35 24t57.5 10.5q20 0 42 -6v-69q-18 6 -32 6q-18 0 -28.5 -6t-14.5 -20.5t-5 -26.5t-1 -37v-49h81v-61h-81zM352 501v-501h-79v501h79zM352 691v-103h-79v103h79z" />
    <glyph glyph-name="fl" unicode="&#xfb02;" horiz-adv-x="396" 
d="M143 440v-440h-79v440h-59v61h59v53q0 27 1 42t7 40t17.5 38.5t35 24t57.5 10.5q20 0 42 -6v-69q-18 6 -32 6q-18 0 -28.5 -6t-14.5 -20.5t-5 -26.5t-1 -37v-49h81v-61h-81zM353 706l-1 -706h-80v706h81z" />
    </font>
</defs>
</svg>
